  0
SECTION
  2
HEADER
  9
$ACADVER
  1
AC1009
  9
$DWGCODEPAGE
  3
ansi_1252
  9
$INSBASE
 10
0.0
 20
0.0
 30
0.0
  9
$EXTMIN
 10
0.0
 20
0.0
 30
0.0
  9
$EXTMAX
 10
17.0
 20
11.0
 30
0.0
  9
$LIMMIN
 10
0.0
 20
0.0
  9
$LIMMAX
 10
17.0
 20
11.0
  9
$ORTHOMODE
 70
     0
  9
$REGENMODE
 70
     1
  9
$FILLMODE
 70
     1
  9
$QTEXTMODE
 70
     0
  9
$MIRRTEXT
 70
     1
  9
$DRAGMODE
 70
     2
  9
$LTSCALE
 40
1.0
  9
$OSMODE
 70
    37
  9
$ATTMODE
 70
     1
  9
$TEXTSIZE
 40
0.125
  9
$TRACEWID
 40
0.05
  9
$TEXTSTYLE
  7
STANDARD
  9
$CLAYER
  8
0
  9
$CELTYPE
  6
BYLAYER
  9
$CECOLOR
 62
   256
  9
$DIMSCALE
 40
1.0
  9
$DIMASZ
 40
0.13
  9
$DIMEXO
 40
0.05
  9
$DIMDLI
 40
0.38
  9
$DIMRND
 40
0.0
  9
$DIMDLE
 40
0.0
  9
$DIMEXE
 40
0.125
  9
$DIMTP
 40
0.0
  9
$DIMTM
 40
0.0
  9
$DIMTXT
 40
0.125
  9
$DIMCEN
 40
0.09
  9
$DIMTSZ
 40
0.0
  9
$DIMTOL
 70
     0
  9
$DIMLIM
 70
     0
  9
$DIMTIH
 70
     1
  9
$DIMTOH
 70
     1
  9
$DIMSE1
 70
     0
  9
$DIMSE2
 70
     0
  9
$DIMTAD
 70
     0
  9
$DIMZIN
 70
     0
  9
$DIMBLK
  1

  9
$DIMASO
 70
     1
  9
$DIMSHO
 70
     1
  9
$DIMPOST
  1

  9
$DIMAPOST
  1

  9
$DIMALT
 70
     0
  9
$DIMALTD
 70
     2
  9
$DIMALTF
 40
25.4
  9
$DIMLFAC
 40
1.0
  9
$DIMTOFL
 70
     0
  9
$DIMTVP
 40
0.0
  9
$DIMTIX
 70
     0
  9
$DIMSOXD
 70
     0
  9
$DIMSAH
 70
     0
  9
$DIMBLK1
  1

  9
$DIMBLK2
  1

  9
$DIMSTYLE
  2
STANDARD
  9
$DIMCLRD
 70
     0
  9
$DIMCLRE
 70
     0
  9
$DIMCLRT
 70
     0
  9
$DIMTFAC
 40
1.0
  9
$DIMGAP
 40
0.06
  9
$LUNITS
 70
     2
  9
$LUPREC
 70
     3
  9
$SKETCHINC
 40
0.1
  9
$FILLETRAD
 40
0.5
  9
$AUNITS
 70
     0
  9
$AUPREC
 70
     2
  9
$MENU
  1
.
  9
$ELEVATION
 40
0.0
  9
$PELEVATION
 40
0.0
  9
$THICKNESS
 40
0.0
  9
$LIMCHECK
 70
     0
  9
$CHAMFERA
 40
0.0
  9
$CHAMFERB
 40
0.0
  9
$SKPOLY
 70
     0
  9
$TDCREATE
 40
2459674.497074271
  9
$TDUPDATE
 40
2459674.497080208
  9
$TDINDWG
 40
0.0000000116
  9
$TDUSRTIMER
 40
0.0000000116
  9
$USRTIMER
 70
     1
  9
$ANGBASE
 50
0.0
  9
$ANGDIR
 70
     0
  9
$PDMODE
 70
     0
  9
$PDSIZE
 40
-1.0
  9
$PLINEWID
 40
0.0
  9
$COORDS
 70
     1
  9
$SPLFRAME
 70
     0
  9
$SPLINETYPE
 70
     6
  9
$SPLINESEGS
 70
     8
  9
$ATTDIA
 70
     0
  9
$ATTREQ
 70
     1
  9
$HANDLING
 70
     1
  9
$HANDSEED
  5
26A
  9
$SURFTAB1
 70
     6
  9
$SURFTAB2
 70
     6
  9
$SURFTYPE
 70
     6
  9
$SURFU
 70
     6
  9
$SURFV
 70
     6
  9
$UCSNAME
  2

  9
$UCSORG
 10
0.0
 20
0.0
 30
0.0
  9
$UCSXDIR
 10
1.0
 20
0.0
 30
0.0
  9
$UCSYDIR
 10
0.0
 20
1.0
 30
0.0
  9
$PUCSNAME
  2

  9
$PUCSORG
 10
0.0
 20
0.0
 30
0.0
  9
$PUCSXDIR
 10
1.0
 20
0.0
 30
0.0
  9
$PUCSYDIR
 10
0.0
 20
1.0
 30
0.0
  9
$USERI1
 70
     0
  9
$USERI2
 70
     0
  9
$USERI3
 70
     0
  9
$USERI4
 70
     0
  9
$USERI5
 70
     0
  9
$USERR1
 40
0.0
  9
$USERR2
 40
0.0
  9
$USERR3
 40
0.0
  9
$USERR4
 40
0.0
  9
$USERR5
 40
0.0
  9
$WORLDVIEW
 70
     1
  9
$SHADEDGE
 70
     3
  9
$SHADEDIF
 70
    70
  9
$TILEMODE
 70
     1
  9
$MAXACTVP
 70
    64
  9
$PLIMCHECK
 70
     0
  9
$PEXTMIN
 10
1.0000000000E+20
 20
1.0000000000E+20
 30
1.0000000000E+20
  9
$PEXTMAX
 10
-1.0000000000E+20
 20
-1.0000000000E+20
 30
-1.0000000000E+20
  9
$PLIMMIN
 10
0.0
 20
0.0
  9
$PLIMMAX
 10
12.0
 20
9.0
  9
$UNITMODE
 70
     0
  9
$VISRETAIN
 70
     1
  9
$PLINEGEN
 70
     0
  9
$PSLTSCALE
 70
     1
  0
ENDSEC
  0
SECTION
  2
TABLES
  0
TABLE
  2
VPORT
 70
     1
  0
VPORT
  2
*ACTIVE
 70
     0
 10
0.0
 20
0.0
 11
1.0
 21
1.0
 12
8.5
 22
5.5
 13
0.0
 23
0.0
 14
0.5
 24
0.5
 15
0.5
 25
0.5
 16
0.0
 26
0.0
 36
1.0
 17
0.0
 27
0.0
 37
0.0
 40
11.0
 41
1.5454545455
 42
50.0
 43
0.0
 44
0.0
 50
0.0
 51
0.0
 71
     0
 72
  2000
 73
     1
 74
     3
 75
     0
 76
     0
 77
     0
 78
     0
  0
ENDTAB
  0
TABLE
  2
LTYPE
 70
     6
  0
LTYPE
  2
CONTINUOUS
 70
     0
  3
Solid line
 72
    65
 73
     0
 40
0.0
  0
LTYPE
  2
HIDDEN
 70
     0
  3
Hidden __ __ __ __ __ __ __ __ __ __ __ __ __ __
 72
    65
 73
     2
 40
0.075
 49
0.05
 49
-0.025
  0
LTYPE
  2
PHANTOM
 70
     0
  3
Phantom ______  __  __  ______  __  __  ______
 72
    65
 73
     6
 40
0.5
 49
0.25
 49
-0.05
 49
0.05
 49
-0.05
 49
0.05
 49
-0.05
  0
LTYPE
  2
CENTER
 70
     0
  3
Center ____ _ ____ _ ____ _ ____ _ ____ _ ____
 72
    65
 73
     4
 40
0.4
 49
0.25
 49
-0.05
 49
0.05
 49
-0.05
  0
LTYPE
  2
CENTERX2
 70
     0
  3
Center (2x) ________  __  ________  __  _____
 72
    65
 73
     4
 40
0.8
 49
0.5
 49
-0.1
 49
0.1
 49
-0.1
  0
LTYPE
  2
DOT2
 70
     0
  3
Dot (.5x) ........................................
 72
    65
 73
     2
 40
0.025
 49
0.0
 49
-0.025
  0
ENDTAB
  0
TABLE
  2
LAYER
 70
     2
  0
LAYER
  2
0
 70
     0
 62
     7
  6
CONTINUOUS
  0
LAYER
  2
FORMAT
 70
     0
 62
     7
  6
CONTINUOUS
  0
ENDTAB
  0
TABLE
  2
STYLE
 70
     1
  0
STYLE
  2
STANDARD
 70
     0
 40
0.0
 41
1.0
 50
0.0
 71
     0
 42
0.125
  3
txt
  4

  0
ENDTAB
  0
TABLE
  2
VIEW
 70
     0
  0
ENDTAB
  0
TABLE
  2
UCS
 70
     0
  0
ENDTAB
  0
TABLE
  2
APPID
 70
     1
  0
APPID
  2
ACAD
 70
     0
  0
ENDTAB
  0
TABLE
  2
DIMSTYLE
 70
     3
  0
DIMSTYLE
  2
STANDARD
 70
     0
  3

  4

  5

  6

  7

 40
1.0
 41
0.18
 42
0.0625
 43
0.38
 44
0.18
 45
0.0
 46
0.0
 47
0.0
 48
0.0
140
0.18
141
0.09
142
0.0
143
25.4
144
1.0
145
0.0
146
1.0
147
0.09
 71
     0
 72
     0
 73
     1
 74
     1
 75
     0
 76
     0
 77
     0
 78
     0
170
     0
171
     2
172
     0
173
     0
174
     0
175
     0
176
     0
177
     0
178
     0
  0
DIMSTYLE
  2
SLDDIMSTYLE0
 70
     0
  3

  4

  5

  6

  7

 40
1.0
 41
0.13
 42
0.0625
 43
0.38
 44
0.0
 45
0.000000001
 46
0.0
 47
0.0
 48
0.0
140
0.125
141
0.09
142
0.0
143
25.4
144
1.0
145
0.0
146
1.0
147
0.03125
 71
     0
 72
     0
 73
     1
 74
     1
 75
     0
 76
     0
 77
     0
 78
    12
170
     0
171
     2
172
     0
173
     1
174
     0
175
     0
176
     0
177
     0
178
     0
  0
DIMSTYLE
  2
SLDDIMSTYLE1
 70
     0
  3

  4

  5

  6

  7

 40
1.0
 41
0.13
 42
0.0625
 43
0.38
 44
0.0
 45
0.000000001
 46
0.0
 47
0.0
 48
0.0
140
0.1875
141
0.09
142
0.0
143
25.4
144
1.0
145
0.0
146
1.0
147
0.046875
 71
     0
 72
     0
 73
     1
 74
     1
 75
     0
 76
     0
 77
     0
 78
    12
170
     0
171
     2
172
     0
173
     1
174
     0
175
     0
176
     0
177
     0
178
     0
  0
ENDTAB
  0
ENDSEC
  0
SECTION
  2
BLOCKS
  0
BLOCK
  8
0
  2
$MODEL_SPACE
 70
     0
 10
0.0
 20
0.0
 30
0.0
  3
$MODEL_SPACE
  1

  0
ENDBLK
  5
21
  8
0
  0
BLOCK
 67
     1
  8
0
  2
$PAPER_SPACE
 70
     0
 10
0.0
 20
0.0
 30
0.0
  3
$PAPER_SPACE
  1

  0
ENDBLK
  5
1D
 67
     1
  8
0
  0
BLOCK
  8
0
  2
SW_NOTE_0
 70
     0
 10
0.0
 20
0.0
 30
0.0
  3
SW_NOTE_0
  1

  0
TEXT
  5
83
  8
0
  6
CONTINUOUS
 62
     0
 10
0.0
 20
0.0441575077
 30
0.0
 40
0.125
  1
Bottom Cut-Out
 41
0.7
 11
0.0
 21
0.0
 31
0.0
 73
     1
  0
TEXT
  5
84
  8
0
  6
CONTINUOUS
 62
     0
 10
0.4282118533
 20
-0.1202125668
 30
0.0
 40
0.125
  1
Edge
 41
0.7
 11
0.4282118533
 21
-0.1643700745
 31
0.0
 73
     1
  0
ENDBLK
  5
82
  8
0
  0
BLOCK
  8
0
  2
SW_NOTE_0_1
 70
     0
 10
0.0
 20
0.0
 30
0.0
  3
SW_NOTE_0_1
  1

  0
TEXT
  5
92
  8
FORMAT
 62
     0
 10
0.0
 20
0.0662362616
 30
0.0
 40
0.1875
  1
Cubby-Back Box 
 41
0.6533333333
 11
0.0
 21
0.0
 31
0.0
 73
     1
  0
TEXT
  5
93
  8
FORMAT
 62
     0
 10
0.4535590804
 20
-0.1837637354
 30
0.0
 40
0.1875
  1
Version 2
 41
0.7
 11
0.4535590804
 21
-0.249999997
 31
0.0
 73
     1
  0
ENDBLK
  5
91
  8
0
  0
BLOCK
  8
0
  2
SW_NOTE_0_2
 70
     0
 10
0.0
 20
0.0
 30
0.0
  3
SW_NOTE_0_2
  1

  0
TEXT
  5
9A
  8
0
  6
CONTINUOUS
 62
     0
 10
0.0
 20
0.0294383385
 30
0.0
 40
0.0833333333
  1
22 South Smith Street
 41
0.65
 11
0.0
 21
0.0
 31
0.0
 73
     1
  0
TEXT
  5
9B
  8
0
  6
CONTINUOUS
 62
     0
 10
0.0
 20
-0.0816727713
 30
0.0
 40
0.0833333333
  1
 Norwalk, CT 06855
 41
0.6416666667
 11
0.0
 21
-0.1111111098
 31
0.0
 73
     1
  0
TEXT
  5
9C
  8
0
  6
CONTINUOUS
 62
     0
 10
0.0
 20
-0.192783881
 30
0.0
 40
0.0833333333
  1
(203) 854-5701
 41
0.7
 11
0.0
 21
-0.2222222195
 31
0.0
 73
     1
  0
TEXT
  5
9D
  8
0
  6
CONTINUOUS
 62
     0
 10
0.0277777774
 20
-0.3038949908
 30
0.0
 40
0.0833333333
  1
www.soundcontrol.net
 41
0.7
 11
0.0277777774
 21
-0.3333333293
 31
0.0
 73
     1
  0
ENDBLK
  5
99
  8
0
  0
BLOCK
  8
0
  2
SW_NOTE_0_3
 70
     0
 10
0.0
 20
0.0
 30
0.0
  3
SW_NOTE_0_3
  1

  0
TEXT
  5
A3
  8
0
  6
CONTINUOUS
 62
     0
 10
0.0
 20
0.0883150155
 30
0.0
 40
0.25
  1
Print-Out at 100% on 11"x17"
 41
0.65
 11
0.0
 21
0.0
 31
0.0
 73
     1
  0
TEXT
  5
A4
  8
0
  6
CONTINUOUS
 62
     0
 10
1.0629628939
 20
-0.284388399
 30
0.0
 40
0.25
  1
For 1:1 TEMPLET
 41
0.6533333333
 11
1.0629628939
 21
-0.3727034145
 31
0.0
 73
     1
  0
ENDBLK
  5
A2
  8
0
  0
BLOCK
  8
0
  2
_D
 70
     0
 10
0.0
 20
0.0
 30
0.0
  3
_D
  1

  0
SOLID
  5
F9
  8
0
  6
CONTINUOUS
 62
     7
 10
15.8308348447
 20
10.535937093
 30
0.0
 11
15.8108348447
 21
10.405937093
 31
0.0
 12
15.8508348447
 22
10.405937093
 32
0.0
 13
15.8508348447
 23
10.405937093
 33
0.0
  0
SOLID
  5
FA
  8
0
  6
CONTINUOUS
 62
     7
 10
15.8308348447
 20
2.366937093
 30
0.0
 11
15.8508348447
 21
2.496937093
 31
0.0
 12
15.8108348447
 22
2.496937093
 32
0.0
 13
15.8108348447
 23
2.496937093
 33
0.0
  0
LINE
  5
FB
  8
0
  6
CONTINUOUS
 62
     7
 10
15.7174667947
 20
7.0293086239
 30
0.0
 11
15.9388209684
 21
7.0293086239
 31
0.0
  0
LINE
  5
FC
  8
0
  6
CONTINUOUS
 62
     7
 10
13.9658187947
 20
10.535937093
 30
0.0
 11
15.9558348447
 21
10.535937093
 31
0.0
  0
LINE
  5
FD
  8
0
  6
CONTINUOUS
 62
     7
 10
12.9153702777
 20
2.366937093
 30
0.0
 11
15.9558348447
 21
2.366937093
 31
0.0
  0
LINE
  5
FE
  8
0
  6
CONTINUOUS
 62
     7
 10
15.8308348447
 20
10.535937093
 30
0.0
 11
15.8308348447
 21
7.1799509876
 31
0.0
  0
LINE
  5
FF
  8
0
  6
CONTINUOUS
 62
     7
 10
15.8308348447
 20
2.366937093
 30
0.0
 11
15.8308348447
 21
6.853023911
 31
0.0
  0
TEXT
  5
100
  8
0
  6
CONTINUOUS
 62
     7
 10
15.6067897078
 20
6.971148428
 30
0.0
 40
0.125
  1
8
 41
0.7
 11
15.6067897078
 21
6.9269909203
 31
0.0
 73
     1
  0
TEXT
  5
101
  8
0
  6
CONTINUOUS
 62
     7
 10
15.7819633259
 20
7.0624765528
 30
0.0
 40
0.125
  1
3
 41
0.7
 11
15.7819633259
 21
7.018319045
 31
0.0
 73
     1
  0
TEXT
  5
102
  8
0
  6
CONTINUOUS
 62
     7
 10
15.7357827702
 20
6.8971814081
 30
0.0
 40
0.125
  1
16
 41
0.7
 11
15.7357827702
 21
6.8530239004
 31
0.0
 73
     1
  0
TEXT
  5
103
  8
0
  6
CONTINUOUS
 62
     7
 10
15.9571369439
 20
6.971148428
 30
0.0
 40
0.125
  1
"
 41
0.7
 11
15.9571369439
 21
6.9269909203
 31
0.0
 73
     1
  0
TEXT
  5
104
  8
0
  6
CONTINUOUS
 62
     7
 10
16.0086994349
 20
6.971148428
 30
0.0
 40
0.125
  1
 
 41
0.7
 11
16.0086994349
 21
6.9269909203
 31
0.0
 73
     1
  0
ENDBLK
  5
F8
  8
0
  0
BLOCK
  8
0
  2
_D_1
 70
     0
 10
0.0
 20
0.0
 30
0.0
  3
_D_1
  1

  0
SOLID
  5
109
  8
0
  6
CONTINUOUS
 62
     7
 10
15.1221734273
 20
2.366937093
 30
0.0
 11
15.1421734273
 21
2.496937093
 31
0.0
 12
15.1021734273
 22
2.496937093
 32
0.0
 13
15.1021734273
 23
2.496937093
 33
0.0
  0
SOLID
  5
10A
  8
0
  6
CONTINUOUS
 62
     7
 10
15.1221734273
 20
7.035687093
 30
0.0
 11
15.1021734273
 21
6.905687093
 31
0.0
 12
15.1421734273
 22
6.905687093
 32
0.0
 13
15.1421734273
 23
6.905687093
 33
0.0
  0
LINE
  5
10B
  8
0
  6
CONTINUOUS
 62
     7
 10
15.0318956506
 20
6.2203650133
 30
0.0
 11
15.2532498244
 21
6.2203650133
 31
0.0
  0
LINE
  5
10C
  8
0
  6
CONTINUOUS
 62
     7
 10
12.9153702777
 20
2.366937093
 30
0.0
 11
15.2471734273
 21
2.366937093
 31
0.0
  0
LINE
  5
10D
  8
0
  6
CONTINUOUS
 62
     7
 10
13.9658187947
 20
7.035687093
 30
0.0
 11
15.2471734273
 21
7.035687093
 31
0.0
  0
LINE
  5
10E
  8
0
  6
CONTINUOUS
 62
     7
 10
15.1221734273
 20
2.366937093
 30
0.0
 11
15.1221734273
 21
6.0440803004
 31
0.0
  0
LINE
  5
10F
  8
0
  6
CONTINUOUS
 62
     7
 10
15.1221734273
 20
7.035687093
 30
0.0
 11
15.1221734273
 21
6.371007377
 31
0.0
  0
TEXT
  5
110
  8
0
  6
CONTINUOUS
 62
     7
 10
14.9212185638
 20
6.1622048174
 30
0.0
 40
0.125
  1
4
 41
0.7
 11
14.9212185638
 21
6.1180473097
 31
0.0
 73
     1
  0
TEXT
  5
111
  8
0
  6
CONTINUOUS
 62
     7
 10
15.0502116261
 20
6.2535329422
 30
0.0
 40
0.125
  1
11
 41
0.7
 11
15.0502116261
 21
6.2093754344
 31
0.0
 73
     1
  0
TEXT
  5
112
  8
0
  6
CONTINUOUS
 62
     7
 10
15.0502116261
 20
6.0882377975
 30
0.0
 40
0.125
  1
16
 41
0.7
 11
15.0502116261
 21
6.0440802898
 31
0.0
 73
     1
  0
TEXT
  5
113
  8
0
  6
CONTINUOUS
 62
     7
 10
15.2715657999
 20
6.1622048174
 30
0.0
 40
0.125
  1
"
 41
0.7
 11
15.2715657999
 21
6.1180473097
 31
0.0
 73
     1
  0
ENDBLK
  5
108
  8
0
  0
BLOCK
  8
0
  2
_D_2
 70
     0
 10
0.0
 20
0.0
 30
0.0
  3
_D_2
  1

  0
SOLID
  5
118
  8
0
  6
CONTINUOUS
 62
     7
 10
14.41351201
 20
2.366937093
 30
0.0
 11
14.43351201
 21
2.496937093
 31
0.0
 12
14.39351201
 22
2.496937093
 32
0.0
 13
14.39351201
 23
2.496937093
 33
0.0
  0
SOLID
  5
119
  8
0
  6
CONTINUOUS
 62
     7
 10
14.41351201
 20
5.160687093
 30
0.0
 11
14.39351201
 21
5.030687093
 31
0.0
 12
14.43351201
 22
5.030687093
 32
0.0
 13
14.43351201
 23
5.030687093
 33
0.0
  0
LINE
  5
11A
  8
0
  6
CONTINUOUS
 62
     7
 10
14.3232342333
 20
4.0382692556
 30
0.0
 11
14.544588407
 21
4.0382692556
 31
0.0
  0
LINE
  5
11B
  8
0
  6
CONTINUOUS
 62
     7
 10
12.9153702777
 20
2.366937093
 30
0.0
 11
14.53851201
 21
2.366937093
 31
0.0
  0
LINE
  5
11C
  8
0
  6
CONTINUOUS
 62
     7
 10
13.9658187947
 20
5.160687093
 30
0.0
 11
14.53851201
 21
5.160687093
 31
0.0
  0
LINE
  5
11D
  8
0
  6
CONTINUOUS
 62
     7
 10
14.41351201
 20
2.366937093
 30
0.0
 11
14.41351201
 21
3.8619845427
 31
0.0
  0
LINE
  5
11E
  8
0
  6
CONTINUOUS
 62
     7
 10
14.41351201
 20
5.160687093
 30
0.0
 11
14.41351201
 21
4.1889116193
 31
0.0
  0
TEXT
  5
11F
  8
0
  6
CONTINUOUS
 62
     7
 10
14.2125571465
 20
3.9801090597
 30
0.0
 40
0.125
  1
2
 41
0.7
 11
14.2125571465
 21
3.935951552
 31
0.0
 73
     1
  0
TEXT
  5
120
  8
0
  6
CONTINUOUS
 62
     7
 10
14.3415502088
 20
4.0714371845
 30
0.0
 40
0.125
  1
13
 41
0.7
 11
14.3415502088
 21
4.0272796767
 31
0.0
 73
     1
  0
TEXT
  5
121
  8
0
  6
CONTINUOUS
 62
     7
 10
14.3415502088
 20
3.9061420398
 30
0.0
 40
0.125
  1
16
 41
0.7
 11
14.3415502088
 21
3.8619845321
 31
0.0
 73
     1
  0
TEXT
  5
122
  8
0
  6
CONTINUOUS
 62
     7
 10
14.5629043825
 20
3.9801090597
 30
0.0
 40
0.125
  1
"
 41
0.7
 11
14.5629043825
 21
3.935951552
 31
0.0
 73
     1
  0
ENDBLK
  5
117
  8
0
  0
BLOCK
  8
0
  2
_D_3
 70
     0
 10
0.0
 20
0.0
 30
0.0
  3
_D_3
  1

  0
SOLID
  5
127
  8
0
  6
CONTINUOUS
 62
     7
 10
14.8859529549
 20
6.916937093
 30
0.0
 11
14.8659529549
 21
6.786937093
 31
0.0
 12
14.9059529549
 22
6.786937093
 32
0.0
 13
14.9059529549
 23
6.786937093
 33
0.0
  0
SOLID
  5
128
  8
0
  6
CONTINUOUS
 62
     7
 10
14.8859529549
 20
2.366937093
 30
0.0
 11
14.9059529549
 21
2.496937093
 31
0.0
 12
14.8659529549
 22
2.496937093
 32
0.0
 13
14.8659529549
 23
2.496937093
 33
0.0
  0
LINE
  5
129
  8
0
  6
CONTINUOUS
 62
     7
 10
14.7956751782
 20
5.8501548177
 30
0.0
 11
15.0170293519
 21
5.8501548177
 31
0.0
  0
LINE
  5
12A
  8
0
  6
CONTINUOUS
 62
     7
 10
13.9658187947
 20
6.916937093
 30
0.0
 11
15.0109529549
 21
6.916937093
 31
0.0
  0
LINE
  5
12B
  8
0
  6
CONTINUOUS
 62
     7
 10
12.9153702777
 20
2.366937093
 30
0.0
 11
15.0109529549
 21
2.366937093
 31
0.0
  0
LINE
  5
12C
  8
0
  6
CONTINUOUS
 62
     7
 10
14.8859529549
 20
6.916937093
 30
0.0
 11
14.8859529549
 21
6.0007971814
 31
0.0
  0
LINE
  5
12D
  8
0
  6
CONTINUOUS
 62
     7
 10
14.8859529549
 20
2.366937093
 30
0.0
 11
14.8859529549
 21
5.6738701048
 31
0.0
  0
TEXT
  5
12E
  8
0
  6
CONTINUOUS
 62
     7
 10
14.6849980913
 20
5.7919946218
 30
0.0
 40
0.125
  1
4
 41
0.7
 11
14.6849980913
 21
5.747837114
 31
0.0
 73
     1
  0
TEXT
  5
12F
  8
0
  6
CONTINUOUS
 62
     7
 10
14.8601717094
 20
5.8833227466
 30
0.0
 40
0.125
  1
9
 41
0.7
 11
14.8601717094
 21
5.8391652388
 31
0.0
 73
     1
  0
TEXT
  5
130
  8
0
  6
CONTINUOUS
 62
     7
 10
14.8139911537
 20
5.7180276019
 30
0.0
 40
0.125
  1
16
 41
0.7
 11
14.8139911537
 21
5.6738700942
 31
0.0
 73
     1
  0
TEXT
  5
131
  8
0
  6
CONTINUOUS
 62
     7
 10
15.0353453274
 20
5.7919946218
 30
0.0
 40
0.125
  1
"
 41
0.7
 11
15.0353453274
 21
5.747837114
 31
0.0
 73
     1
  0
ENDBLK
  5
126
  8
0
  0
BLOCK
  8
0
  2
_D_4
 70
     0
 10
0.0
 20
0.0
 30
0.0
  3
_D_4
  1

  0
SOLID
  5
136
  8
0
  6
CONTINUOUS
 62
     7
 10
14.6497324824
 20
6.426891093
 30
0.0
 11
14.6297324824
 21
6.296891093
 31
0.0
 12
14.6697324824
 22
6.296891093
 32
0.0
 13
14.6697324824
 23
6.296891093
 33
0.0
  0
SOLID
  5
137
  8
0
  6
CONTINUOUS
 62
     7
 10
14.6497324824
 20
2.366937093
 30
0.0
 11
14.6697324824
 21
2.496937093
 31
0.0
 12
14.6297324824
 22
2.496937093
 32
0.0
 13
14.6297324824
 23
2.496937093
 33
0.0
  0
LINE
  5
138
  8
0
  6
CONTINUOUS
 62
     7
 10
14.5594547058
 20
5.4983198782
 30
0.0
 11
14.7808088795
 21
5.4983198782
 31
0.0
  0
LINE
  5
139
  8
0
  6
CONTINUOUS
 62
     7
 10
14.1650555028
 20
6.426891093
 30
0.0
 11
14.7747324824
 21
6.426891093
 31
0.0
  0
LINE
  5
13A
  8
0
  6
CONTINUOUS
 62
     7
 10
12.9153702777
 20
2.366937093
 30
0.0
 11
14.7747324824
 21
2.366937093
 31
0.0
  0
LINE
  5
13B
  8
0
  6
CONTINUOUS
 62
     7
 10
14.6497324824
 20
6.426891093
 30
0.0
 11
14.6497324824
 21
5.6489622419
 31
0.0
  0
LINE
  5
13C
  8
0
  6
CONTINUOUS
 62
     7
 10
14.6497324824
 20
2.366937093
 30
0.0
 11
14.6497324824
 21
5.3220351652
 31
0.0
  0
TEXT
  5
13D
  8
0
  6
CONTINUOUS
 62
     7
 10
14.4487776189
 20
5.4401596823
 30
0.0
 40
0.125
  1
4
 41
0.7
 11
14.4487776189
 21
5.3960021745
 31
0.0
 73
     1
  0
TEXT
  5
13E
  8
0
  6
CONTINUOUS
 62
     7
 10
14.6239512369
 20
5.531487807
 30
0.0
 40
0.125
  1
1
 41
0.7
 11
14.6239512369
 21
5.4873302993
 31
0.0
 73
     1
  0
TEXT
  5
13F
  8
0
  6
CONTINUOUS
 62
     7
 10
14.5777706813
 20
5.3661926624
 30
0.0
 40
0.125
  1
16
 41
0.7
 11
14.5777706813
 21
5.3220351546
 31
0.0
 73
     1
  0
TEXT
  5
140
  8
0
  6
CONTINUOUS
 62
     7
 10
14.799124855
 20
5.4401596823
 30
0.0
 40
0.125
  1
"
 41
0.7
 11
14.799124855
 21
5.3960021745
 31
0.0
 73
     1
  0
ENDBLK
  5
135
  8
0
  0
BLOCK
  8
0
  2
_D_5
 70
     0
 10
0.0
 20
0.0
 30
0.0
  3
_D_5
  1

  0
SOLID
  5
145
  8
0
  6
CONTINUOUS
 62
     7
 10
15.3583938998
 20
2.366937093
 30
0.0
 11
15.3783938998
 21
2.496937093
 31
0.0
 12
15.3383938998
 22
2.496937093
 32
0.0
 13
15.3383938998
 23
2.496937093
 33
0.0
  0
SOLID
  5
146
  8
0
  6
CONTINUOUS
 62
     7
 10
15.3583938998
 20
8.212421093
 30
0.0
 11
15.3383938998
 21
8.082421093
 31
0.0
 12
15.3783938998
 22
8.082421093
 32
0.0
 13
15.3783938998
 23
8.082421093
 33
0.0
  0
LINE
  5
147
  8
0
  6
CONTINUOUS
 62
     7
 10
15.3142966696
 20
6.6440259431
 30
0.0
 11
15.443289732
 21
6.6440259431
 31
0.0
  0
LINE
  5
148
  8
0
  6
CONTINUOUS
 62
     7
 10
12.9153702777
 20
2.366937093
 30
0.0
 11
15.4833938998
 21
2.366937093
 31
0.0
  0
LINE
  5
149
  8
0
  6
CONTINUOUS
 62
     7
 10
15.1328417755
 20
8.212421093
 30
0.0
 11
15.4833938998
 21
8.212421093
 31
0.0
  0
LINE
  5
14A
  8
0
  6
CONTINUOUS
 62
     7
 10
15.3583938998
 20
2.366937093
 30
0.0
 11
15.3583938998
 21
6.4677412301
 31
0.0
  0
LINE
  5
14B
  8
0
  6
CONTINUOUS
 62
     7
 10
15.3583938998
 20
8.212421093
 30
0.0
 11
15.3583938998
 21
6.7946683068
 31
0.0
  0
TEXT
  5
14C
  8
0
  6
CONTINUOUS
 62
     7
 10
15.2036195827
 20
6.5858657472
 30
0.0
 40
0.125
  1
5
 41
0.7
 11
15.2036195827
 21
6.5417082394
 31
0.0
 73
     1
  0
TEXT
  5
14D
  8
0
  6
CONTINUOUS
 62
     7
 10
15.3326126451
 20
6.6771938719
 30
0.0
 40
0.125
  1
7
 41
0.7
 11
15.3326126451
 21
6.6330363642
 31
0.0
 73
     1
  0
TEXT
  5
14E
  8
0
  6
CONTINUOUS
 62
     7
 10
15.3326126451
 20
6.5118987273
 30
0.0
 40
0.125
  1
8
 41
0.7
 11
15.3326126451
 21
6.4677412195
 31
0.0
 73
     1
  0
TEXT
  5
14F
  8
0
  6
CONTINUOUS
 62
     7
 10
15.4616057075
 20
6.5858657472
 30
0.0
 40
0.125
  1
"
 41
0.7
 11
15.4616057075
 21
6.5417082394
 31
0.0
 73
     1
  0
ENDBLK
  5
144
  8
0
  0
BLOCK
  8
0
  2
_D_6
 70
     0
 10
0.0
 20
0.0
 30
0.0
  3
_D_6
  1

  0
SOLID
  5
154
  8
0
  6
CONTINUOUS
 62
     7
 10
14.0540788353
 20
3.804437093
 30
0.0
 11
14.0340788353
 21
3.674437093
 31
0.0
 12
14.0740788353
 22
3.674437093
 32
0.0
 13
14.0740788353
 23
3.674437093
 33
0.0
  0
SOLID
  5
155
  8
0
  6
CONTINUOUS
 62
     7
 10
14.0540788353
 20
2.366937093
 30
0.0
 11
14.0740788353
 21
2.496937093
 31
0.0
 12
14.0340788353
 22
2.496937093
 32
0.0
 13
14.0340788353
 23
2.496937093
 33
0.0
  0
LINE
  5
156
  8
0
  6
CONTINUOUS
 62
     7
 10
13.9638010586
 20
3.2199165782
 30
0.0
 11
14.1851552323
 21
3.2199165782
 31
0.0
  0
LINE
  5
157
  8
0
  6
CONTINUOUS
 62
     7
 10
14.0398460611
 20
3.804437093
 30
0.0
 11
14.1790788353
 21
3.804437093
 31
0.0
  0
LINE
  5
158
  8
0
  6
CONTINUOUS
 62
     7
 10
12.9153702777
 20
2.366937093
 30
0.0
 11
14.1790788353
 21
2.366937093
 31
0.0
  0
LINE
  5
159
  8
0
  6
CONTINUOUS
 62
     7
 10
14.0540788353
 20
3.804437093
 30
0.0
 11
14.0540788353
 21
3.3705589419
 31
0.0
  0
LINE
  5
15A
  8
0
  6
CONTINUOUS
 62
     7
 10
14.0540788353
 20
2.366937093
 30
0.0
 11
14.0540788353
 21
3.0436318653
 31
0.0
  0
TEXT
  5
15B
  8
0
  6
CONTINUOUS
 62
     7
 10
13.8531239718
 20
3.1617563823
 30
0.0
 40
0.125
  1
1
 41
0.7
 11
13.8531239718
 21
3.1175988746
 31
0.0
 73
     1
  0
TEXT
  5
15C
  8
0
  6
CONTINUOUS
 62
     7
 10
14.0282975898
 20
3.2530845071
 30
0.0
 40
0.125
  1
7
 41
0.7
 11
14.0282975898
 21
3.2089269993
 31
0.0
 73
     1
  0
TEXT
  5
15D
  8
0
  6
CONTINUOUS
 62
     7
 10
13.9821170341
 20
3.0877893624
 30
0.0
 40
0.125
  1
16
 41
0.7
 11
13.9821170341
 21
3.0436318547
 31
0.0
 73
     1
  0
TEXT
  5
15E
  8
0
  6
CONTINUOUS
 62
     7
 10
14.2034712078
 20
3.1617563823
 30
0.0
 40
0.125
  1
"
 41
0.7
 11
14.2034712078
 21
3.1175988746
 31
0.0
 73
     1
  0
ENDBLK
  5
153
  8
0
  0
BLOCK
  8
0
  2
_D_7
 70
     0
 10
0.0
 20
0.0
 30
0.0
  3
_D_7
  1

  0
SOLID
  5
164
  8
0
  6
CONTINUOUS
 62
     7
 10
5.3468463649
 20
2.366937093
 30
0.0
 11
5.3668463649
 21
2.496937093
 31
0.0
 12
5.3268463649
 22
2.496937093
 32
0.0
 13
5.3268463649
 23
2.496937093
 33
0.0
  0
SOLID
  5
165
  8
0
  6
CONTINUOUS
 62
     7
 10
5.3468463649
 20
7.766937093
 30
0.0
 11
5.3268463649
 21
7.636937093
 31
0.0
 12
5.3668463649
 22
7.636937093
 32
0.0
 13
5.3668463649
 23
7.636937093
 33
0.0
  0
LINE
  5
166
  8
0
  6
CONTINUOUS
 62
     7
 10
4.3234088836
 20
3.4390397341
 30
0.0
 11
4.6557005616
 21
3.4390397341
 31
0.0
  0
LINE
  5
167
  8
0
  6
CONTINUOUS
 62
     7
 10
12.8153702777
 20
2.366937093
 30
0.0
 11
5.2218463649
 21
2.366937093
 31
0.0
  0
LINE
  5
168
  8
0
  6
CONTINUOUS
 62
     7
 10
12.8153702777
 20
7.766937093
 30
0.0
 11
5.2218463649
 21
7.766937093
 31
0.0
  0
LINE
  5
169
  8
0
  6
CONTINUOUS
 62
     7
 10
5.3468463649
 20
2.366937093
 30
0.0
 11
5.3468463649
 21
3.1669564025
 31
0.0
  0
LINE
  5
16A
  8
0
  6
CONTINUOUS
 62
     7
 10
5.3468463649
 20
7.766937093
 30
0.0
 11
5.3468463649
 21
3.6724772327
 31
0.0
  0
TEXT
  5
16B
  8
0
  6
CONTINUOUS
 62
     7
 10
4.1572630538
 20
3.3471510085
 30
1.5344395079
 40
0.1875
  1
5
 41
0.7
 11
4.1572630538
 21
3.2809147469
 31
1.5344395079
 73
     1
  0
TEXT
  5
16C
  8
0
  6
CONTINUOUS
 62
     7
 10
4.4202838891
 20
3.4887134882
 30
1.5344395079
 40
0.1875
  1
7
 41
0.7
 11
4.4202838891
 21
3.4224772266
 31
1.5344395079
 73
     1
  0
TEXT
  5
16D
  8
0
  6
CONTINUOUS
 62
     7
 10
4.3510130555
 20
3.2331926584
 30
1.5344395079
 40
0.1875
  1
16
 41
0.7
 11
4.3510130555
 21
3.1669563968
 31
1.5344395079
 73
     1
  0
TEXT
  5
16E
  8
0
  6
CONTINUOUS
 62
     7
 10
4.6833047335
 20
3.3471510085
 30
1.5344395079
 40
0.1875
  1
"
 41
0.7
 11
4.6833047335
 21
3.2809147469
 31
1.5344395079
 73
     1
  0
TEXT
  5
16F
  8
0
  6
CONTINUOUS
 62
     7
 10
4.7607352957
 20
3.3471510085
 30
1.5344395079
 40
0.1875
  1
 Cut-Out Size Y
 41
0.63
 11
4.7607352957
 21
3.2809147469
 31
1.5344395079
 73
     1
  0
ENDBLK
  5
163
  8
0
  0
BLOCK
  8
0
  2
_D_8
 70
     0
 10
0.0
 20
0.0
 30
0.0
  3
_D_8
  1

  0
SOLID
  5
174
  8
0
  6
CONTINUOUS
 62
     7
 10
1.6233702777
 20
4.1873504454
 30
0.0
 11
1.7533702777
 21
4.1673504454
 31
0.0
 12
1.7533702777
 22
4.2073504454
 32
0.0
 13
1.7533702777
 23
4.2073504454
 33
0.0
  0
SOLID
  5
175
  8
0
  6
CONTINUOUS
 62
     7
 10
12.8653702777
 20
4.1873504454
 30
0.0
 11
12.7353702777
 21
4.2073504454
 31
0.0
 12
12.7353702777
 22
4.1673504454
 32
0.0
 13
12.7353702777
 23
4.1673504454
 33
0.0
  0
LINE
  5
176
  8
0
  6
CONTINUOUS
 62
     7
 10
2.8273778835
 20
4.2066733619
 30
0.0
 11
3.0211278853
 21
4.2066733619
 31
0.0
  0
LINE
  5
177
  8
0
  6
CONTINUOUS
 62
     7
 10
1.6233702777
 20
2.416937093
 30
0.0
 11
1.6233702777
 21
4.3123504454
 31
0.0
  0
LINE
  5
178
  8
0
  6
CONTINUOUS
 62
     7
 10
12.8653702777
 20
2.416937093
 30
0.0
 11
12.8653702777
 21
4.3123504454
 31
0.0
  0
LINE
  5
179
  8
0
  6
CONTINUOUS
 62
     7
 10
1.6233702777
 20
4.1873504454
 30
0.0
 11
2.5226903866
 21
4.1873504454
 31
0.0
  0
LINE
  5
17A
  8
0
  6
CONTINUOUS
 62
     7
 10
12.8653702777
 20
4.1873504454
 30
0.0
 11
4.9060236141
 21
4.1873504454
 31
0.0
  0
TEXT
  5
17B
  8
0
  6
CONTINUOUS
 62
     7
 10
2.5226903866
 20
4.1147846363
 30
1.5344395079
 40
0.1875
  1
11
 41
0.7
 11
2.5226903866
 21
4.0485483747
 31
1.5344395079
 73
     1
  0
TEXT
  5
17C
  8
0
  6
CONTINUOUS
 62
     7
 10
2.8549820509
 20
4.256347116
 30
1.5344395079
 40
0.1875
  1
1
 41
0.7
 11
2.8549820509
 21
4.1901108543
 31
1.5344395079
 73
     1
  0
TEXT
  5
17D
  8
0
  6
CONTINUOUS
 62
     7
 10
2.8549820509
 20
4.0008262862
 30
1.5344395079
 40
0.1875
  1
4
 41
0.7
 11
2.8549820509
 21
3.9345900246
 31
1.5344395079
 73
     1
  0
TEXT
  5
17E
  8
0
  6
CONTINUOUS
 62
     7
 10
3.0487320297
 20
4.1147846363
 30
1.5344395079
 40
0.1875
  1
"
 41
0.7
 11
3.0487320297
 21
4.0485483747
 31
1.5344395079
 73
     1
  0
TEXT
  5
17F
  8
0
  6
CONTINUOUS
 62
     7
 10
3.1261625919
 20
4.1147846363
 30
1.5344395079
 40
0.1875
  1
 Cut-Out Size X
 41
0.63
 11
3.1261625919
 21
4.0485483747
 31
1.5344395079
 73
     1
  0
ENDBLK
  5
173
  8
0
  0
BLOCK
  8
0
  2
SW_NOTE_0_4
 70
     0
 10
0.0
 20
0.0
 30
0.0
  3
SW_NOTE_0_4
  1

  0
TEXT
  5
183
  8
0
  6
CONTINUOUS
 62
     0
 10
0.0
 20
0.058876677
 30
0.0
 40
0.1666666667
  1
Minimum Wall Thickness 2-7/8"
 41
0.6637931034
 11
0.0
 21
0.0
 31
0.0
 73
     1
  0
TEXT
  5
184
  8
0
  6
CONTINUOUS
 62
     0
 10
0.3194443764
 20
-0.2027156277
 30
0.0
 40
0.1666666667
  1
(Stud Plus Wall Covering)
 41
0.658
 11
0.3194443764
 21
-0.2615923047
 31
0.0
 73
     1
  0
ENDBLK
  5
182
  8
0
  0
BLOCK
  8
0
  2
SW_NOTE_0_5
 70
     0
 10
0.0
 20
0.0
 30
0.0
  3
SW_NOTE_0_5
  1

  0
TEXT
  5
189
  8
0
  6
CONTINUOUS
 62
     0
 10
0.421007401
 20
-0.5785540056
 30
0.0
 40
0.125
  1
CUT
 41
0.7
 11
0.421007401
 21
-0.6227115133
 31
0.0
 73
     1
  0
TEXT
  5
18A
  8
0
  6
CONTINUOUS
 62
     0
 10
0.4151914381
 20
-0.7429240801
 30
0.0
 40
0.125
  1
LINE
 41
0.7
 11
0.4151914381
 21
-0.7870815878
 31
0.0
 73
     1
  0
POLYLINE
  5
18B
  8
0
  6
CONTINUOUS
 62
     0
 66
     1
 10
0.0
 20
0.0
 30
0.0
 70
   128
  0
VERTEX
  5
23A
  8
0
  6
CONTINUOUS
 62
     0
 10
0.3929784891
 20
-0.6883164821
 30
0.0
  0
VERTEX
  5
23B
  8
0
  6
CONTINUOUS
 62
     0
 10
0.1429784891
 20
-0.6883164821
 30
0.0
  0
VERTEX
  5
23C
  8
0
  6
CONTINUOUS
 62
     0
 10
0.0
 20
0.0
 30
0.0
  0
SEQEND
  5
25E
  8
0
  6
CONTINUOUS
 62
     0
  0
SOLID
  5
18C
  8
0
  6
CONTINUOUS
 62
     0
 10
0.0
 20
0.0
 30
0.0
 11
0.00685748
 21
-0.1313505804
 31
0.0
 12
0.0460214704
 22
-0.1232153572
 32
0.0
 13
0.0460214704
 23
-0.1232153572
 33
0.0
  0
ENDBLK
  5
188
  8
0
  0
BLOCK
  8
0
  2
SW_NOTE_0_6
 70
     0
 10
0.0
 20
0.0
 30
0.0
  3
SW_NOTE_0_6
  1

  0
INSERT
  5
196
  8
0
  6
CONTINUOUS
 62
     0
  2
SW_SYMBOL_MOD_CL
 10
-2.2043578521
 20
0.4220245277
 30
0.0
 41
0.0040555664
 42
0.0040555664
 43
0.0040555664
  0
TEXT
  5
197
  8
0
  6
CONTINUOUS
 62
     0
 10
-1.9910375456
 20
0.4488480511
 30
0.0
 40
0.125
  1
of Cisco Quad Camera Lens
 41
0.644
 11
-1.9910375456
 21
0.4046905433
 31
0.0
 73
     1
  0
POLYLINE
  5
198
  8
0
  6
CONTINUOUS
 62
     0
 66
     1
 10
0.0
 20
0.0
 30
0.0
 70
   128
  0
VERTEX
  5
23D
  8
0
  6
CONTINUOUS
 62
     0
 10
0.3265483332
 20
0.5037194028
 30
0.0
  0
VERTEX
  5
23E
  8
0
  6
CONTINUOUS
 62
     0
 10
0.5765483332
 20
0.5037194028
 30
0.0
  0
VERTEX
  5
23F
  8
0
  6
CONTINUOUS
 62
     0
 10
0.0
 20
0.0
 30
0.0
  0
SEQEND
  5
25F
  8
0
  6
CONTINUOUS
 62
     0
  0
SOLID
  5
199
  8
0
  6
CONTINUOUS
 62
     0
 10
0.0
 20
0.0
 30
0.0
 11
0.1110577675
 21
0.0704710741
 31
0.0
 12
0.0847400912
 22
0.1005938216
 32
0.0
 13
0.0847400912
 23
0.1005938216
 33
0.0
  0
ENDBLK
  5
190
  8
0
  0
BLOCK
  8
0
  2
SW_SYMBOL_MOD_CL
 70
     0
 10
0.0
 20
0.0
 30
0.0
  3
SW_SYMBOL_MOD_CL
  1

  0
TEXT
  5
194
  8
0
  6
CONTINUOUS
 62
     0
 10
5.5752847408
 20
8.2111295721
 30
0.0
 40
30.821835344
  1
C
 41
0.7
 72
     1
 11
15.7480314961
 21
23.6220472441
 31
0.0
 73
     2
  0
TEXT
  5
195
  8
0
  6
CONTINUOUS
 62
     0
 10
13.4493004888
 20
-3.5998940499
 30
0.0
 40
30.821835344
  1
L
 41
0.7
 72
     1
 11
23.6220472441
 21
11.811023622
 31
0.0
 73
     2
  0
ENDBLK
  5
193
  8
0
  0
BLOCK
  8
0
  2
SW_NOTE_0_7
 70
     0
 10
0.0
 20
0.0
 30
0.0
  3
SW_NOTE_0_7
  1

  0
INSERT
  5
19E
  8
0
  6
CONTINUOUS
 62
     0
  2
SW_SYMBOL_MOD_CL
 10
-2.3081333461
 20
0.2350684131
 30
0.0
 41
0.0040555664
 42
0.0040555664
 43
0.0040555664
  0
TEXT
  5
19F
  8
0
  6
CONTINUOUS
 62
     0
 10
-2.0948130303
 20
0.2618919365
 30
0.0
 40
0.125
  1
 of Cisco Precision 60 Lens
 41
0.6351851852
 11
-2.0948130303
 21
0.2177344287
 31
0.0
 73
     1
  0
POLYLINE
  5
1A0
  8
0
  6
CONTINUOUS
 62
     0
 66
     1
 10
0.0
 20
0.0
 30
0.0
 70
   128
  0
VERTEX
  5
240
  8
0
  6
CONTINUOUS
 62
     0
 10
0.008189674
 20
0.3160084917
 30
0.0
  0
VERTEX
  5
241
  8
0
  6
CONTINUOUS
 62
     0
 10
0.258189674
 20
0.3160084917
 30
0.0
  0
VERTEX
  5
242
  8
0
  6
CONTINUOUS
 62
     0
 10
0.0
 20
0.0
 30
0.0
  0
SEQEND
  5
260
  8
0
  6
CONTINUOUS
 62
     0
  0
SOLID
  5
1A1
  8
0
  6
CONTINUOUS
 62
     0
 10
0.0
 20
0.0
 30
0.0
 11
0.09773953
 21
0.0880169545
 31
0.0
 12
0.0667638198
 22
0.1133251621
 32
0.0
 13
0.0667638198
 23
0.1133251621
 33
0.0
  0
ENDBLK
  5
19D
  8
0
  0
BLOCK
  8
0
  2
SW_NOTE_0_8
 70
     0
 10
0.0
 20
0.0
 30
0.0
  3
SW_NOTE_0_8
  1

  0
INSERT
  5
1A6
  8
0
  6
CONTINUOUS
 62
     0
  2
SW_SYMBOL_MOD_CL
 10
-2.757831367
 20
-0.3817332839
 30
0.0
 41
0.0040555664
 42
0.0040555664
 43
0.0040555664
  0
TEXT
  5
1A7
  8
0
  6
CONTINUOUS
 62
     0
 10
-2.5445110513
 20
-0.3549097605
 30
0.0
 40
0.125
  1
 of Poly EagleEye IV Lens
 41
0.63
 11
-2.5445110513
 21
-0.3990672683
 31
0.0
 73
     1
  0
POLYLINE
  5
1A8
  8
0
  6
CONTINUOUS
 62
     0
 66
     1
 10
0.0
 20
0.0
 30
0.0
 70
   128
  0
VERTEX
  5
243
  8
0
  6
CONTINUOUS
 62
     0
 10
-0.5543556033
 20
-0.2993072003
 30
0.0
  0
VERTEX
  5
244
  8
0
  6
CONTINUOUS
 62
     0
 10
-0.3043556033
 20
-0.2993072003
 30
0.0
  0
VERTEX
  5
245
  8
0
  6
CONTINUOUS
 62
     0
 10
0.0
 20
0.0
 30
0.0
  0
SEQEND
  5
261
  8
0
  6
CONTINUOUS
 62
     0
  0
SOLID
  5
1A9
  8
0
  6
CONTINUOUS
 62
     0
 10
0.0
 20
0.0
 30
0.0
 11
-0.1067127706
 21
-0.0768920321
 31
0.0
 12
-0.0786660201
 22
-0.105411846
 32
0.0
 13
-0.0786660201
 23
-0.105411846
 33
0.0
  0
ENDBLK
  5
1A5
  8
0
  0
BLOCK
  8
0
  2
SW_NOTE_0_9
 70
     0
 10
0.0
 20
0.0
 30
0.0
  3
SW_NOTE_0_9
  1

  0
TEXT
  5
1AE
  8
0
  6
CONTINUOUS
 62
     0
 10
-0.957201169
 20
0.5990416562
 30
0.0
 40
0.125
  1
CUT
 41
0.7
 11
-0.957201169
 21
0.5548841485
 31
0.0
 73
     1
  0
TEXT
  5
1AF
  8
0
  6
CONTINUOUS
 62
     0
 10
-0.9630171318
 20
0.4346715817
 30
0.0
 40
0.125
  1
LINE
 41
0.7
 11
-0.9630171318
 21
0.390514074
 31
0.0
 73
     1
  0
POLYLINE
  5
1B0
  8
0
  6
CONTINUOUS
 62
     0
 66
     1
 10
0.0
 20
0.0
 30
0.0
 70
   128
  0
VERTEX
  5
246
  8
0
  6
CONTINUOUS
 62
     0
 10
-0.6180753036
 20
0.4910976457
 30
0.0
  0
VERTEX
  5
247
  8
0
  6
CONTINUOUS
 62
     0
 10
-0.3680753036
 20
0.4910976457
 30
0.0
  0
VERTEX
  5
248
  8
0
  6
CONTINUOUS
 62
     0
 10
0.0
 20
0.0
 30
0.0
  0
SEQEND
  5
262
  8
0
  6
CONTINUOUS
 62
     0
  0
SOLID
  5
1B1
  8
0
  6
CONTINUOUS
 62
     0
 10
0.0
 20
0.0
 30
0.0
 11
-0.0619625076
 21
0.1160200312
 31
0.0
 12
-0.0939702623
 22
0.0920303743
 32
0.0
 13
-0.0939702623
 23
0.0920303743
 33
0.0
  0
ENDBLK
  5
1AD
  8
0
  0
BLOCK
  8
0
  2
SW_NOTE_0_10
 70
     0
 10
0.0
 20
0.0
 30
0.0
  3
SW_NOTE_0_10
  1

  0
INSERT
  5
1B6
  8
0
  6
CONTINUOUS
 62
     0
  2
SW_SYMBOL_MOD_CL
 10
-2.3112668183
 20
-0.3050302843
 30
0.0
 41
0.0040555664
 42
0.0040555664
 43
0.0040555664
  0
TEXT
  5
1B7
  8
0
  6
CONTINUOUS
 62
     0
 10
-2.0979465026
 20
-0.278206761
 30
0.0
 40
0.125
  1
 of Cisco SpeakerTrack 60 Lens
 41
0.6416666667
 11
-2.0979465026
 21
-0.3223642687
 31
0.0
 73
     1
  0
POLYLINE
  5
1B8
  8
0
  6
CONTINUOUS
 62
     0
 66
     1
 10
0.0
 20
0.0
 30
0.0
 70
   128
  0
VERTEX
  5
249
  8
0
  6
CONTINUOUS
 62
     0
 10
0.3856117656
 20
-0.222197204
 30
0.0
  0
VERTEX
  5
24A
  8
0
  6
CONTINUOUS
 62
     0
 10
0.6356117656
 20
-0.222197204
 30
0.0
  0
VERTEX
  5
24B
  8
0
  6
CONTINUOUS
 62
     0
 10
0.0
 20
0.0
 30
0.0
  0
SEQEND
  5
263
  8
0
  6
CONTINUOUS
 62
     0
  0
SOLID
  5
1B9
  8
0
  6
CONTINUOUS
 62
     0
 10
0.0
 20
0.0
 30
0.0
 11
0.1161177009
 21
-0.0617792808
 31
0.0
 12
0.129317591
 22
-0.0240200051
 32
0.0
 13
0.129317591
 23
-0.0240200051
 33
0.0
  0
ENDBLK
  5
1B5
  8
0
  0
BLOCK
  8
0
  2
SW_NOTE_0_11
 70
     0
 10
0.0
 20
0.0
 30
0.0
  3
SW_NOTE_0_11
  1

  0
INSERT
  5
1BE
  8
0
  6
CONTINUOUS
 62
     0
  2
SW_SYMBOL_MOD_CL
 10
-2.1832110936
 20
-0.3005023038
 30
0.0
 41
0.0040555664
 42
0.0040555664
 43
0.0040555664
  0
TEXT
  5
1BF
  8
0
  6
CONTINUOUS
 62
     0
 10
-1.9698907779
 20
-0.2736787804
 30
0.0
 40
0.125
  1
of Poly EagleEye Director II
 41
0.65
 11
-1.9698907779
 21
-0.3178362882
 31
0.0
 73
     1
  0
POLYLINE
  5
1C0
  8
0
  6
CONTINUOUS
 62
     0
 66
     1
 10
0.0
 20
0.0
 30
0.0
 70
   128
  0
VERTEX
  5
24C
  8
0
  6
CONTINUOUS
 62
     0
 10
0.1825909682
 20
-0.2179487126
 30
0.0
  0
VERTEX
  5
24D
  8
0
  6
CONTINUOUS
 62
     0
 10
0.4325909682
 20
-0.2179487126
 30
0.0
  0
VERTEX
  5
24E
  8
0
  6
CONTINUOUS
 62
     0
 10
0.0
 20
0.0
 30
0.0
  0
SEQEND
  5
264
  8
0
  6
CONTINUOUS
 62
     0
  0
SOLID
  5
1C1
  8
0
  6
CONTINUOUS
 62
     0
 10
0.0
 20
0.0
 30
0.0
 11
0.1070986795
 21
-0.076353604
 31
0.0
 12
0.1250963556
 22
-0.0406312909
 32
0.0
 13
0.1250963556
 23
-0.0406312909
 33
0.0
  0
ENDBLK
  5
1BD
  8
0
  0
BLOCK
  8
0
  2
SW_NOTE_0_12
 70
     0
 10
0.0
 20
0.0
 30
0.0
  3
SW_NOTE_0_12
  1

  0
TEXT
  5
1C6
  8
0
  6
CONTINUOUS
 62
     0
 10
-1.6218513316
 20
-0.3181598244
 30
0.0
 40
0.125
  1
Cubby Back Box
 41
0.65
 11
-1.6218513316
 21
-0.3623173321
 31
0.0
 73
     1
  0
TEXT
  5
1C7
  8
0
  6
CONTINUOUS
 62
     0
 10
-1.2607402432
 20
-0.4825298989
 30
0.0
 40
0.125
  1
CENTER
 41
0.7
 11
-1.2607402432
 21
-0.5266874066
 31
0.0
 73
     1
  0
POLYLINE
  5
1C8
  8
0
  6
CONTINUOUS
 62
     0
 66
     1
 10
0.0
 20
0.0
 30
0.0
 70
   128
  0
VERTEX
  5
24F
  8
0
  6
CONTINUOUS
 62
     0
 10
-0.6338451683
 20
-0.430765011
 30
0.0
  0
VERTEX
  5
250
  8
0
  6
CONTINUOUS
 62
     0
 10
-0.2397428707
 20
-0.430765011
 30
0.0
  0
VERTEX
  5
251
  8
0
  6
CONTINUOUS
 62
     0
 10
0.0
 20
0.0
 30
0.0
  0
SEQEND
  5
265
  8
0
  6
CONTINUOUS
 62
     0
  0
SOLID
  5
1C9
  8
0
  6
CONTINUOUS
 62
     0
 10
0.0
 20
0.0
 30
0.0
 11
-0.0806957563
 21
-0.1038662357
 31
0.0
 12
-0.0457442516
 22
-0.1233185446
 32
0.0
 13
-0.0457442516
 23
-0.1233185446
 33
0.0
  0
ENDBLK
  5
1C5
  8
0
  0
BLOCK
  8
0
  2
SW_NOTE_0_13
 70
     0
 10
0.0
 20
0.0
 30
0.0
  3
SW_NOTE_0_13
  1

  0
INSERT
  5
1CE
  8
0
  6
CONTINUOUS
 62
     0
  2
SW_SYMBOL_MOD_CL
 10
-2.2184694208
 20
-0.6117202301
 30
0.0
 41
0.0040555664
 42
0.0040555664
 43
0.0040555664
  0
TEXT
  5
1CF
  8
0
  6
CONTINUOUS
 62
     0
 10
-2.0051491051
 20
-0.5848967067
 30
0.0
 40
0.125
  1
of Sony BRC Lens
 41
0.634375
 11
-2.0051491051
 21
-0.6290542145
 31
0.0
 73
     1
  0
POLYLINE
  5
1D0
  8
0
  6
CONTINUOUS
 62
     0
 66
     1
 10
0.0
 20
0.0
 30
0.0
 70
   128
  0
VERTEX
  5
252
  8
0
  6
CONTINUOUS
 62
     0
 10
-0.6190194034
 20
-0.5327872258
 30
0.0
  0
VERTEX
  5
253
  8
0
  6
CONTINUOUS
 62
     0
 10
-0.3690194034
 20
-0.5327872258
 30
0.0
  0
VERTEX
  5
254
  8
0
  6
CONTINUOUS
 62
     0
 10
0.0
 20
0.0
 30
0.0
  0
SEQEND
  5
266
  8
0
  6
CONTINUOUS
 62
     0
  0
SOLID
  5
1D1
  8
0
  6
CONTINUOUS
 62
     0
 10
0.0
 20
0.0
 30
0.0
 11
-0.0904613364
 21
-0.0954816559
 31
0.0
 12
-0.0575784647
 22
-0.1182570099
 32
0.0
 13
-0.0575784647
 23
-0.1182570099
 33
0.0
  0
ENDBLK
  5
1CD
  8
0
  0
BLOCK
  8
0
  2
SW_NOTE_0_14
 70
     0
 10
0.0
 20
0.0
 30
0.0
  3
SW_NOTE_0_14
  1

  0
TEXT
  5
1D6
  8
0
  6
CONTINUOUS
 62
     0
 10
1.0012575135
 20
0.7000372267
 30
0.0
 40
0.125
  1
CUT
 41
0.7
 11
1.0012575135
 21
0.655879719
 31
0.0
 73
     1
  0
TEXT
  5
1D7
  8
0
  6
CONTINUOUS
 62
     0
 10
0.9954415506
 20
0.5356671522
 30
0.0
 40
0.125
  1
LINE
 41
0.7
 11
0.9954415506
 21
0.4915096445
 31
0.0
 73
     1
  0
POLYLINE
  5
1D8
  8
0
  6
CONTINUOUS
 62
     0
 66
     1
 10
0.0
 20
0.0
 30
0.0
 70
   128
  0
VERTEX
  5
255
  8
0
  6
CONTINUOUS
 62
     0
 10
0.9781965643
 20
0.7526504558
 30
0.0
  0
VERTEX
  5
256
  8
0
  6
CONTINUOUS
 62
     0
 10
0.7223806015
 20
0.7526504558
 30
0.0
  0
VERTEX
  5
257
  8
0
  6
CONTINUOUS
 62
     0
 10
0.0
 20
0.0
 30
0.0
  0
SEQEND
  5
267
  8
0
  6
CONTINUOUS
 62
     0
  0
SOLID
  5
1D9
  8
0
  6
CONTINUOUS
 62
     0
 10
0.0
 20
0.0
 30
0.0
 11
0.104447828
 21
0.0799415488
 31
0.0
 12
0.075589197
 22
0.1076395527
 32
0.0
 13
0.075589197
 23
0.1076395527
 33
0.0
  0
ENDBLK
  5
1D5
  8
0
  0
BLOCK
  8
0
  2
SW_NOTE_0_15
 70
     0
 10
0.0
 20
0.0
 30
0.0
  3
SW_NOTE_0_15
  1

  0
INSERT
  5
1DE
  8
0
  6
CONTINUOUS
 62
     0
  2
SW_SYMBOL_MOD_CL
 10
0.0
 20
0.0260009766
 30
0.0
 41
0.0060833496
 42
0.0060833496
 43
0.0060833496
  0
TEXT
  5
1DF
  8
0
  6
CONTINUOUS
 62
     0
 10
0.3295920159
 20
0.0662362616
 30
0.0
 40
0.1875
  1
= Center Line
 41
0.6461538462
 11
0.3295920159
 21
0.0
 31
0.0
 73
     1
  0
ENDBLK
  5
1DD
  8
0
  0
BLOCK
  8
0
  2
SW_NOTE_0_16
 70
     0
 10
0.0
 20
0.0
 30
0.0
  3
SW_NOTE_0_16
  1

  0
TEXT
  5
1E4
  8
0
  6
CONTINUOUS
 62
     0
 10
-0.9513801032
 20
0.3591377997
 30
0.0
 40
0.125
  1
CUT
 41
0.7
 11
-0.9513801032
 21
0.314980292
 31
0.0
 73
     1
  0
TEXT
  5
1E5
  8
0
  6
CONTINUOUS
 62
     0
 10
-0.9513801032
 20
0.1947677252
 30
0.0
 40
0.125
  1
LINE
 41
0.7
 11
-0.9513801032
 21
0.1506102175
 31
0.0
 73
     1
  0
POLYLINE
  5
1E6
  8
0
  6
CONTINUOUS
 62
     0
 66
     1
 10
0.0
 20
0.0
 30
0.0
 70
   128
  0
VERTEX
  5
258
  8
0
  6
CONTINUOUS
 62
     0
 10
-0.6057892408
 20
0.2465326131
 30
0.0
  0
VERTEX
  5
259
  8
0
  6
CONTINUOUS
 62
     0
 10
-0.3557892408
 20
0.2465326131
 30
0.0
  0
VERTEX
  5
25A
  8
0
  6
CONTINUOUS
 62
     0
 10
0.0
 20
0.0
 30
0.0
  0
SEQEND
  5
268
  8
0
  6
CONTINUOUS
 62
     0
  0
SOLID
  5
1E7
  8
0
  6
CONTINUOUS
 62
     0
 10
0.0
 20
0.0
 30
0.0
 11
-0.0954635016
 21
0.0904804944
 31
0.0
 12
-0.1182454536
 22
0.0576021936
 32
0.0
 13
-0.1182454536
 23
0.0576021936
 33
0.0
  0
ENDBLK
  5
1E3
  8
0
  0
BLOCK
  8
0
  2
SW_NOTE_0_17
 70
     0
 10
0.0
 20
0.0
 30
0.0
  3
SW_NOTE_0_17
  1

  0
INSERT
  5
1EC
  8
0
  6
CONTINUOUS
 62
     0
  2
SW_SYMBOL_MOD_CL
 10
-2.4686165818
 20
-0.3508155733
 30
0.0
 41
0.0040555664
 42
0.0040555664
 43
0.0040555664
  0
TEXT
  5
1ED
  8
0
  6
CONTINUOUS
 62
     0
 10
-2.2552962753
 20
-0.3239920499
 30
0.0
 40
0.125
  1
of Cisco Room KitMini 
 41
0.6363636364
 11
-2.2552962753
 21
-0.3681495576
 31
0.0
 73
     1
  0
TEXT
  5
1EE
  8
0
  6
CONTINUOUS
 62
     0
 10
-2.0549253033
 20
-0.4883621244
 30
0.0
 40
0.125
  1
Camera Lens
 41
0.7
 11
-2.0549253033
 21
-0.5325196322
 31
0.0
 73
     1
  0
POLYLINE
  5
1EF
  8
0
  6
CONTINUOUS
 62
     0
 66
     1
 10
0.0
 20
0.0
 30
0.0
 70
   128
  0
VERTEX
  5
25B
  8
0
  6
CONTINUOUS
 62
     0
 10
-0.9599926543
 20
-0.4312356577
 30
0.0
  0
VERTEX
  5
25C
  8
0
  6
CONTINUOUS
 62
     0
 10
-0.2501208201
 20
-0.4312356577
 30
0.0
  0
VERTEX
  5
25D
  8
0
  6
CONTINUOUS
 62
     0
 10
0.0
 20
0.0
 30
0.0
  0
SEQEND
  5
269
  8
0
  6
CONTINUOUS
 62
     0
  0
SOLID
  5
1F0
  8
0
  6
CONTINUOUS
 62
     0
 10
0.0
 20
0.0
 30
0.0
 11
-0.082524711
 21
-0.1024191002
 31
0.0
 12
-0.0479236075
 22
-0.1224880722
 32
0.0
 13
-0.0479236075
 23
-0.1224880722
 33
0.0
  0
ENDBLK
  5
1EB
  8
0
  0
BLOCK
  8
0
  2
SW_CENTERMARKSYMBOL_0
 70
     0
 10
0.0
 20
0.0
 30
0.0
  3
SW_CENTERMARKSYMBOL_0
  1

  0
LINE
  5
1F5
  8
0
  6
CONTINUOUS
 62
     0
 10
0.0
 20
0.0
 30
0.0
 11
0.0
 21
0.1
 31
0.0
  0
LINE
  5
1F6
  8
0
  6
CONTINUOUS
 62
     0
 10
0.0
 20
0.0
 30
0.0
 11
-0.1
 21
0.0
 31
0.0
  0
LINE
  5
1F7
  8
0
  6
CONTINUOUS
 62
     0
 10
0.0
 20
0.0
 30
0.0
 11
0.0
 21
-0.1
 31
0.0
  0
LINE
  5
1F8
  8
0
  6
CONTINUOUS
 62
     0
 10
0.0
 20
0.0
 30
0.0
 11
0.1
 21
0.0
 31
0.0
  0
LINE
  5
1F9
  8
0
  6
CONTINUOUS
 62
     0
 10
0.0
 20
0.1
 30
0.0
 11
0.0
 21
0.18
 31
0.0
  0
LINE
  5
1FA
  8
0
  6
CONTINUOUS
 62
     0
 10
-0.1
 20
0.0
 30
0.0
 11
-0.18
 21
0.0
 31
0.0
  0
LINE
  5
1FB
  8
0
  6
CONTINUOUS
 62
     0
 10
0.0
 20
-0.1
 30
0.0
 11
0.0
 21
-0.18
 31
0.0
  0
LINE
  5
1FC
  8
0
  6
CONTINUOUS
 62
     0
 10
0.1
 20
0.0
 30
0.0
 11
0.18
 21
0.0
 31
0.0
  0
ENDBLK
  5
1F4
  8
0
  0
BLOCK
  8
0
  2
SW_CENTERMARKSYMBOL_1
 70
     0
 10
0.0
 20
0.0
 30
0.0
  3
SW_CENTERMARKSYMBOL_1
  1

  0
LINE
  5
201
  8
0
  6
CONTINUOUS
 62
     0
 10
0.0
 20
0.0
 30
0.0
 11
0.0
 21
0.1
 31
0.0
  0
LINE
  5
202
  8
0
  6
CONTINUOUS
 62
     0
 10
0.0
 20
0.0
 30
0.0
 11
-0.1
 21
0.0
 31
0.0
  0
LINE
  5
203
  8
0
  6
CONTINUOUS
 62
     0
 10
0.0
 20
0.0
 30
0.0
 11
0.0
 21
-0.1
 31
0.0
  0
LINE
  5
204
  8
0
  6
CONTINUOUS
 62
     0
 10
0.0
 20
0.0
 30
0.0
 11
0.1
 21
0.0
 31
0.0
  0
LINE
  5
205
  8
0
  6
CONTINUOUS
 62
     0
 10
0.0
 20
0.1
 30
0.0
 11
0.0
 21
0.18
 31
0.0
  0
LINE
  5
206
  8
0
  6
CONTINUOUS
 62
     0
 10
-0.1
 20
0.0
 30
0.0
 11
-0.18
 21
0.0
 31
0.0
  0
LINE
  5
207
  8
0
  6
CONTINUOUS
 62
     0
 10
0.0
 20
-0.1
 30
0.0
 11
0.0
 21
-0.18
 31
0.0
  0
LINE
  5
208
  8
0
  6
CONTINUOUS
 62
     0
 10
0.1
 20
0.0
 30
0.0
 11
0.18
 21
0.0
 31
0.0
  0
ENDBLK
  5
200
  8
0
  0
BLOCK
  8
0
  2
SW_CENTERMARKSYMBOL_2
 70
     0
 10
0.0
 20
0.0
 30
0.0
  3
SW_CENTERMARKSYMBOL_2
  1

  0
LINE
  5
20D
  8
0
  6
CONTINUOUS
 62
     0
 10
0.0
 20
0.0
 30
0.0
 11
0.0
 21
0.1
 31
0.0
  0
LINE
  5
20E
  8
0
  6
CONTINUOUS
 62
     0
 10
0.0
 20
0.0
 30
0.0
 11
-0.1
 21
0.0
 31
0.0
  0
LINE
  5
20F
  8
0
  6
CONTINUOUS
 62
     0
 10
0.0
 20
0.0
 30
0.0
 11
0.0
 21
-0.1
 31
0.0
  0
LINE
  5
210
  8
0
  6
CONTINUOUS
 62
     0
 10
0.0
 20
0.0
 30
0.0
 11
0.1
 21
0.0
 31
0.0
  0
LINE
  5
211
  8
0
  6
CONTINUOUS
 62
     0
 10
0.0
 20
0.1
 30
0.0
 11
0.0
 21
0.18
 31
0.0
  0
LINE
  5
212
  8
0
  6
CONTINUOUS
 62
     0
 10
-0.1
 20
0.0
 30
0.0
 11
-0.18
 21
0.0
 31
0.0
  0
LINE
  5
213
  8
0
  6
CONTINUOUS
 62
     0
 10
0.0
 20
-0.1
 30
0.0
 11
0.0
 21
-0.18
 31
0.0
  0
LINE
  5
214
  8
0
  6
CONTINUOUS
 62
     0
 10
0.1
 20
0.0
 30
0.0
 11
0.18
 21
0.0
 31
0.0
  0
ENDBLK
  5
20C
  8
0
  0
BLOCK
  8
0
  2
SW_CENTERMARKSYMBOL_3
 70
     0
 10
0.0
 20
0.0
 30
0.0
  3
SW_CENTERMARKSYMBOL_3
  1

  0
LINE
  5
219
  8
0
  6
CONTINUOUS
 62
     0
 10
0.0
 20
0.0
 30
0.0
 11
0.0
 21
0.1
 31
0.0
  0
LINE
  5
21A
  8
0
  6
CONTINUOUS
 62
     0
 10
0.0
 20
0.0
 30
0.0
 11
-0.1
 21
0.0
 31
0.0
  0
LINE
  5
21B
  8
0
  6
CONTINUOUS
 62
     0
 10
0.0
 20
0.0
 30
0.0
 11
0.0
 21
-0.1
 31
0.0
  0
LINE
  5
21C
  8
0
  6
CONTINUOUS
 62
     0
 10
0.0
 20
0.0
 30
0.0
 11
0.1
 21
0.0
 31
0.0
  0
LINE
  5
21D
  8
0
  6
CONTINUOUS
 62
     0
 10
0.0
 20
0.1
 30
0.0
 11
0.0
 21
0.18
 31
0.0
  0
LINE
  5
21E
  8
0
  6
CONTINUOUS
 62
     0
 10
-0.1
 20
0.0
 30
0.0
 11
-0.18
 21
0.0
 31
0.0
  0
LINE
  5
21F
  8
0
  6
CONTINUOUS
 62
     0
 10
0.0
 20
-0.1
 30
0.0
 11
0.0
 21
-0.18
 31
0.0
  0
LINE
  5
220
  8
0
  6
CONTINUOUS
 62
     0
 10
0.1
 20
0.0
 30
0.0
 11
0.18
 21
0.0
 31
0.0
  0
ENDBLK
  5
218
  8
0
  0
BLOCK
  8
0
  2
SW_CENTERMARKSYMBOL_4
 70
     0
 10
0.0
 20
0.0
 30
0.0
  3
SW_CENTERMARKSYMBOL_4
  1

  0
LINE
  5
225
  8
0
  6
CONTINUOUS
 62
     0
 10
0.0
 20
0.0
 30
0.0
 11
0.0
 21
0.1
 31
0.0
  0
LINE
  5
226
  8
0
  6
CONTINUOUS
 62
     0
 10
0.0
 20
0.0
 30
0.0
 11
-0.1
 21
0.0
 31
0.0
  0
LINE
  5
227
  8
0
  6
CONTINUOUS
 62
     0
 10
0.0
 20
0.0
 30
0.0
 11
0.0
 21
-0.1
 31
0.0
  0
LINE
  5
228
  8
0
  6
CONTINUOUS
 62
     0
 10
0.0
 20
0.0
 30
0.0
 11
0.1
 21
0.0
 31
0.0
  0
LINE
  5
229
  8
0
  6
CONTINUOUS
 62
     0
 10
0.0
 20
0.1
 30
0.0
 11
0.0
 21
0.18
 31
0.0
  0
LINE
  5
22A
  8
0
  6
CONTINUOUS
 62
     0
 10
-0.1
 20
0.0
 30
0.0
 11
-0.18
 21
0.0
 31
0.0
  0
LINE
  5
22B
  8
0
  6
CONTINUOUS
 62
     0
 10
0.0
 20
-0.1
 30
0.0
 11
0.0
 21
-0.18
 31
0.0
  0
LINE
  5
22C
  8
0
  6
CONTINUOUS
 62
     0
 10
0.1
 20
0.0
 30
0.0
 11
0.18
 21
0.0
 31
0.0
  0
ENDBLK
  5
224
  8
0
  0
BLOCK
  8
0
  2
SW_CENTERMARKSYMBOL_5
 70
     0
 10
0.0
 20
0.0
 30
0.0
  3
SW_CENTERMARKSYMBOL_5
  1

  0
LINE
  5
231
  8
0
  6
CONTINUOUS
 62
     0
 10
0.0
 20
0.0
 30
0.0
 11
0.0
 21
0.1
 31
0.0
  0
LINE
  5
232
  8
0
  6
CONTINUOUS
 62
     0
 10
0.0
 20
0.0
 30
0.0
 11
-0.1
 21
0.0
 31
0.0
  0
LINE
  5
233
  8
0
  6
CONTINUOUS
 62
     0
 10
0.0
 20
0.0
 30
0.0
 11
0.0
 21
-0.1
 31
0.0
  0
LINE
  5
234
  8
0
  6
CONTINUOUS
 62
     0
 10
0.0
 20
0.0
 30
0.0
 11
0.1
 21
0.0
 31
0.0
  0
LINE
  5
235
  8
0
  6
CONTINUOUS
 62
     0
 10
0.0
 20
0.1
 30
0.0
 11
0.0
 21
0.18
 31
0.0
  0
LINE
  5
236
  8
0
  6
CONTINUOUS
 62
     0
 10
-0.1
 20
0.0
 30
0.0
 11
-0.18
 21
0.0
 31
0.0
  0
LINE
  5
237
  8
0
  6
CONTINUOUS
 62
     0
 10
0.0
 20
-0.1
 30
0.0
 11
0.0
 21
-0.18
 31
0.0
  0
LINE
  5
238
  8
0
  6
CONTINUOUS
 62
     0
 10
0.1
 20
0.0
 30
0.0
 11
0.18
 21
0.0
 31
0.0
  0
ENDBLK
  5
230
  8
0
  0
ENDSEC
  0
SECTION
  2
ENTITIES
  0
LINE
  5
75
  8
0
  6
CONTINUOUS
 62
     7
 10
16.3762516046
 20
0.3920731707
 30
0.0
 11
13.617531609
 21
0.3920731707
 31
0.0
  0
LINE
  5
76
  8
0
  6
CONTINUOUS
 62
     7
 10
16.3762516046
 20
0.3920731707
 30
0.0
 11
16.3762516046
 21
2.3564211366
 31
0.0
  0
LINE
  5
77
  8
0
  6
CONTINUOUS
 62
     7
 10
13.617531609
 20
2.3564211366
 30
0.0
 11
16.3762516046
 21
2.3564211366
 31
0.0
  0
LINE
  5
78
  8
0
  6
CONTINUOUS
 62
     7
 10
13.617531609
 20
2.3564211366
 30
0.0
 11
13.617531609
 21
0.3920731707
 31
0.0
  0
LINE
  5
79
  8
0
  6
CONTINUOUS
 62
     7
 10
13.617531609
 20
0.6049590101
 30
0.0
 11
16.3762516046
 21
0.6049590101
 31
0.0
  0
LINE
  5
7A
  8
0
  6
CONTINUOUS
 62
     7
 10
13.617531609
 20
1.1119362457
 30
0.0
 11
16.3762516046
 21
1.1119362457
 31
0.0
  0
LINE
  5
7B
  8
0
  6
CONTINUOUS
 62
     7
 10
13.617531609
 20
1.8341934545
 30
0.0
 11
16.3762516046
 21
1.8341934545
 31
0.0
  0
LINE
  5
7C
  8
0
  6
CONTINUOUS
 62
     7
 10
14.0130763566
 20
1.1119362457
 30
0.0
 11
14.0130763566
 21
0.6049590101
 31
0.0
  0
LINE
  5
7D
  8
0
  6
CONTINUOUS
 62
     7
 10
14.4406681222
 20
0.6049590101
 30
0.0
 11
14.4406681222
 21
0.3920731707
 31
0.0
  0
LINE
  5
7E
  8
0
  6
CONTINUOUS
 62
     7
 10
15.8043163091
 20
1.1119362457
 30
0.0
 11
15.8043163091
 21
0.6049590101
 31
0.0
  0
LINE
  5
7F
  8
0
  6
CONTINUOUS
 62
     7
 10
15.4125802677
 20
0.6049590101
 30
0.0
 11
15.4125802677
 21
0.3920731707
 31
0.0
  0
INSERT
  5
85
  8
0
  6
CONTINUOUS
 62
     7
  2
SW_NOTE_0
 10
11.488408272
 20
2.3590074489
 30
0.0
  0
TEXT
  5
86
  8
0
  6
CONTINUOUS
 62
     7
 10
14.5109509952
 20
0.4562013049
 30
0.0
 40
0.065
  1
DATE
 41
0.7
 11
14.5109509952
 21
0.4332394009
 31
0.0
 73
     1
  0
TEXT
  5
87
  8
0
  6
CONTINUOUS
 62
     7
 10
13.6452049228
 20
0.4562013049
 30
0.0
 40
0.065
  1
NAME
 41
0.7
 11
13.6452049228
 21
0.4332394009
 31
0.0
 73
     1
  0
TEXT
  5
88
  8
0
  6
CONTINUOUS
 62
     7
 10
13.6514680107
 20
1.710436606
 30
0.0
 40
0.1
  1
TITLE:
 41
0.7
 11
13.6514680107
 21
1.6751105999
 31
0.0
 73
     1
  0
TEXT
  5
89
  8
0
  6
CONTINUOUS
 62
     7
 10
13.6982827868
 20
0.9936905805
 30
0.0
 40
0.1
  1
SIZE
 41
0.7
 11
13.6982827868
 21
0.9583645743
 31
0.0
 73
     1
  0
TEXT
  5
8A
  8
0
  6
CONTINUOUS
 62
     7
 10
13.7061728678
 20
0.710262162
 30
0.0
 40
0.25
  1
B
 41
0.7
 11
13.7061728678
 21
0.6219471465
 31
0.0
 73
     1
  0
TEXT
  5
8B
  8
0
  6
CONTINUOUS
 62
     7
 10
14.0447816944
 20
0.9922917615
 30
0.0
 40
0.1
  1
DWG.  NO.
 41
0.6222222222
 11
14.0447816944
 21
0.9569657553
 31
0.0
 73
     1
  0
TEXT
  5
8C
  8
0
  6
CONTINUOUS
 62
     7
 10
15.974082703
 20
0.9883855312
 30
0.0
 40
0.1
  1
REV
 41
0.7
 11
15.974082703
 21
0.953059525
 31
0.0
 73
     1
  0
TEXT
  5
8D
  8
FORMAT
 62
     7
 10
14.0170000649
 20
0.4569561237
 30
0.0
 40
0.075
  1
G.E.G.
 41
0.7
 11
14.0170000649
 21
0.430461619
 31
0.0
 73
     1
  0
TEXT
  5
8E
  8
FORMAT
 62
     7
 10
14.8880192822
 20
0.4569561237
 30
0.0
 40
0.075
  1
4/4/2022
 41
0.7
 11
14.8880192822
 21
0.430461619
 31
0.0
 73
     1
  0
INSERT
  5
94
  8
FORMAT
 62
     7
  2
SW_NOTE_0_1
 10
14.0951499691
 20
1.5841089353
 30
0.0
  0
TEXT
  5
95
  8
0
  6
CONTINUOUS
 62
     7
 10
15.5034524529
 20
0.4588431854
 30
0.0
 40
0.1
  1
SHEET 1 OF 1
 41
0.6125
 11
15.5034524529
 21
0.4235171792
 31
0.0
 73
     1
  0
TEXT
  5
96
  8
FORMAT
 62
     7
 10
14.080508922
 20
0.7141013499
 30
0.0
 40
0.1666666667
  1
804-1147CutOut
 41
0.7
 11
14.080508922
 21
0.6552246729
 31
0.0
 73
     1
  0
INSERT
  5
9E
  8
0
  6
CONTINUOUS
 62
     7
  2
SW_NOTE_0_2
 10
15.3084648004
 20
2.2142757275
 30
0.0
  0
TEXT
  5
9F
  8
0
  6
CONTINUOUS
 62
     7
 10
14.0513231357
 20
1.1830341043
 30
0.0
 40
0.1875
  1
CUTOUT TEMPLET
 41
0.7
 11
14.0513231357
 21
1.1167978427
 31
0.0
 73
     1
  0
INSERT
  5
A5
  8
0
  6
CONTINUOUS
 62
     7
  2
SW_NOTE_0_3
 10
5.1983010056
 20
0.7503872215
 30
0.0
  0
CIRCLE
  5
A6
  8
0
  6
CONTINUOUS
 62
     7
 10
1.1913702777
 20
6.528942202
 30
0.0
 40
0.08
  0
CIRCLE
  5
A7
  8
0
  6
CONTINUOUS
 62
     7
 10
1.1913702777
 20
3.778942202
 30
0.0
 40
0.0800000000000002
  0
CIRCLE
  5
A8
  8
0
  6
CONTINUOUS
 62
     7
 10
3.9868702777
 20
8.264991787
 30
0.0
 40
0.0799999999999994
  0
CIRCLE
  5
A9
  8
0
  6
CONTINUOUS
 62
     7
 10
10.5018702777
 20
8.264991787
 30
0.0
 40
0.0800000000000007
  0
CIRCLE
  5
AA
  8
0
  6
CONTINUOUS
 62
     7
 10
13.2973702777
 20
6.528942202
 30
0.0
 40
0.0800000000000007
  0
CIRCLE
  5
AB
  8
0
  6
CONTINUOUS
 62
     7
 10
13.2973702777
 20
3.778942202
 30
0.0
 40
0.0800000000000006
  0
LINE
  5
AC
  8
0
  6
CONTINUOUS
 62
     7
 10
1.6663702777
 20
8.510937093
 30
0.0
 11
0.9413702777
 21
8.510937093
 31
0.0
  0
LINE
  5
AD
  8
0
  6
CONTINUOUS
 62
     7
 10
0.9413702777
 20
8.510937093
 30
0.0
 11
0.9413702777
 21
1.825942202
 31
0.0
  0
LINE
  5
AE
  8
0
  6
CONTINUOUS
 62
     7
 10
1.6233702777
 20
7.766937093
 30
0.0
 11
12.8653702777
 21
7.766937093
 31
0.0
  0
LINE
  5
AF
  8
0
  6
CONTINUOUS
 62
     7
 10
12.8653702777
 20
2.366937093
 30
0.0
 11
12.8653702777
 21
7.766937093
 31
0.0
  0
LINE
  5
B0
  8
0
  6
CONTINUOUS
 62
     7
 10
1.6233702777
 20
2.366937093
 30
0.0
 11
12.8653702777
 21
2.366937093
 31
0.0
  0
LINE
  5
B1
  8
0
  6
CONTINUOUS
 62
     7
 10
1.6233702777
 20
2.366937093
 30
0.0
 11
1.6233702777
 21
7.766937093
 31
0.0
  0
LINE
  5
B2
  8
0
  6
CENTERX2
 62
     7
 10
7.2443702777
 20
7.766937093
 30
0.0
 11
7.2443702777
 21
2.366937093
 31
0.0
  0
LINE
  5
B3
  8
0
  6
CENTERX2
 62
     7
 10
1.6233702777
 20
5.066937093
 30
0.0
 11
12.8653702777
 21
5.066937093
 31
0.0
  0
LINE
  5
B4
  8
0
  6
CONTINUOUS
 62
     7
 10
0.9413702777
 20
1.825942202
 30
0.0
 11
1.1323477596
 21
1.825942202
 31
0.0
  0
LINE
  5
B5
  8
0
  6
CONTINUOUS
 62
     7
 10
1.1323477596
 20
1.825942202
 30
0.0
 11
13.3632576685
 21
1.825942202
 31
0.0
  0
LINE
  5
B6
  8
0
  6
CONTINUOUS
 62
     7
 10
13.3632576685
 20
1.825942202
 30
0.0
 11
13.5473702777
 21
1.825942202
 31
0.0
  0
LINE
  5
B7
  8
0
  6
CONTINUOUS
 62
     7
 10
13.5473702777
 20
1.825942202
 30
0.0
 11
13.5473702777
 21
8.510937093
 31
0.0
  0
LINE
  5
B8
  8
0
  6
CONTINUOUS
 62
     7
 10
13.5473702777
 20
8.510937093
 30
0.0
 11
12.8223702777
 21
8.510937093
 31
0.0
  0
LINE
  5
B9
  8
0
  6
CONTINUOUS
 62
     7
 10
12.8223702777
 20
8.510937093
 30
0.0
 11
12.8223702777
 21
7.746937093
 31
0.0
  0
LINE
  5
BA
  8
0
  6
CONTINUOUS
 62
     7
 10
12.8223702777
 20
7.746937093
 30
0.0
 11
12.7833702777
 21
7.746937093
 31
0.0
  0
LINE
  5
BB
  8
0
  6
CONTINUOUS
 62
     7
 10
12.7833702777
 20
7.746937093
 30
0.0
 11
12.7833702777
 21
8.4879975745
 31
0.0
  0
LINE
  5
BC
  8
0
  6
CONTINUOUS
 62
     7
 10
12.7833702777
 20
8.4879975745
 30
0.0
 11
11.7833702777
 21
8.4879975745
 31
0.0
  0
LINE
  5
BD
  8
0
  6
CONTINUOUS
 62
     7
 10
11.7833702777
 20
8.4879975745
 30
0.0
 11
11.7833702777
 21
7.7795002364
 31
0.0
  0
LINE
  5
BE
  8
0
  6
CONTINUOUS
 62
     7
 10
11.7833702777
 20
7.7795002364
 30
0.0
 11
11.7593702777
 21
7.7795002364
 31
0.0
  0
LINE
  5
BF
  8
0
  6
CONTINUOUS
 62
     7
 10
11.7593702777
 20
7.7795002364
 30
0.0
 11
11.7593702777
 21
8.510937093
 31
0.0
  0
LINE
  5
C0
  8
0
  6
CONTINUOUS
 62
     7
 10
11.7593702777
 20
8.510937093
 30
0.0
 11
2.7293702777
 21
8.510937093
 31
0.0
  0
LINE
  5
C1
  8
0
  6
CONTINUOUS
 62
     7
 10
2.7293702777
 20
8.510937093
 30
0.0
 11
2.7293702777
 21
7.7795002364
 31
0.0
  0
LINE
  5
C2
  8
0
  6
CONTINUOUS
 62
     7
 10
2.7293702777
 20
7.7795002364
 30
0.0
 11
2.7053702777
 21
7.7795002364
 31
0.0
  0
LINE
  5
C3
  8
0
  6
CONTINUOUS
 62
     7
 10
2.7053702777
 20
7.7795002364
 30
0.0
 11
2.7053702777
 21
8.4879975745
 31
0.0
  0
LINE
  5
C4
  8
0
  6
CONTINUOUS
 62
     7
 10
2.7053702777
 20
8.4879975745
 30
0.0
 11
1.7053702777
 21
8.4879975745
 31
0.0
  0
LINE
  5
C5
  8
0
  6
CONTINUOUS
 62
     7
 10
1.7053702777
 20
8.4879975745
 30
0.0
 11
1.7053702777
 21
7.7795002364
 31
0.0
  0
LINE
  5
C6
  8
0
  6
CONTINUOUS
 62
     7
 10
1.7053702777
 20
7.7795002364
 30
0.0
 11
1.6663702777
 21
7.7795002364
 31
0.0
  0
LINE
  5
C7
  8
0
  6
CONTINUOUS
 62
     7
 10
1.6663702777
 20
7.7795002364
 30
0.0
 11
1.6663702777
 21
8.510937093
 31
0.0
  0
LINE
  5
C8
  8
0
  6
CONTINUOUS
 62
     7
 10
1.2141952518
 20
1.912942202
 30
0.0
 11
13.2745453037
 21
1.912942202
 31
0.0
  0
LINE
  5
C9
  8
0
  6
CONTINUOUS
 62
     7
 10
13.2745453037
 20
1.912942202
 30
0.0
 11
13.3632576685
 21
1.825942202
 31
0.0
  0
LINE
  5
CA
  8
0
  6
CONTINUOUS
 62
     7
 10
1.2141952518
 20
1.912942202
 30
0.0
 11
1.1254828869
 21
1.825942202
 31
0.0
  0
LINE
  5
CB
  8
0
  6
CONTINUOUS
 62
     7
 10
7.2243702804
 20
2.434937093
 30
0.0
 11
7.2163702804
 21
2.434937093
 31
0.0
  0
LINE
  5
CC
  8
0
  6
CONTINUOUS
 62
     7
 10
7.272370275
 20
2.434937093
 30
0.0
 11
7.264370275
 21
2.434937093
 31
0.0
  0
LINE
  5
CD
  8
0
  6
CONTINUOUS
 62
     7
 10
11.754370275
 20
2.434937093
 30
0.0
 11
11.746370275
 21
2.434937093
 31
0.0
  0
LINE
  5
CE
  8
0
  6
CONTINUOUS
 62
     7
 10
2.742370275
 20
2.434937093
 30
0.0
 11
2.734370275
 21
2.434937093
 31
0.0
  0
LINE
  5
CF
  8
0
  6
CONTINUOUS
 62
     7
 10
1.7042934681
 20
2.444937093
 30
0.0
 11
1.7053702777
 21
2.444937093
 31
0.0
  0
LINE
  5
D0
  8
0
  6
CONTINUOUS
 62
     7
 10
12.7833702777
 20
2.444937093
 30
0.0
 11
12.7844470873
 21
2.444937093
 31
0.0
  0
LINE
  5
D1
  8
0
  6
CONTINUOUS
 62
     7
 10
1.2141952518
 20
1.912942202
 30
0.0
 11
13.2745453037
 21
1.912942202
 31
0.0
  0
ARC
  5
D2
  8
0
  6
CONTINUOUS
 62
     7
 10
1.0735409801
 20
1.9632662643
 30
0.0
 40
0.1493858607712891
 50
293.1822365904
 51
340.3135258985
  0
LINE
  5
D3
  8
0
  6
CONTINUOUS
 62
     7
 10
1.1323477596
 20
1.8332392358
 30
0.0
 11
1.1323477596
 21
1.825942202
 31
0.0
  0
LINE
  5
D4
  8
0
  6
CONTINUOUS
 62
     7
 10
1.1926365734
 20
1.8973233838
 30
0.0
 11
1.2141952518
 21
1.912942202
 31
0.0
  0
ARC
  5
D5
  8
0
  6
CONTINUOUS
 62
     7
 10
13.4148621646
 20
1.9629488364
 30
0.0
 40
0.1489613539153695
 50
199.6152359291
 51
246.889001582
  0
LINE
  5
D6
  8
0
  6
CONTINUOUS
 62
     7
 10
13.2745453037
 20
1.912942202
 30
0.0
 11
13.2951869946
 21
1.898298098
 31
0.0
  0
LINE
  5
D7
  8
0
  6
CONTINUOUS
 62
     7
 10
13.3563927959
 20
1.8332392358
 30
0.0
 11
13.3563927959
 21
1.825942202
 31
0.0
  0
LINE
  5
D8
  8
0
  6
CONTINUOUS
 62
     7
 10
1.1323477596
 20
1.825942202
 30
0.0
 11
13.3563927959
 21
1.825942202
 31
0.0
  0
CIRCLE
  5
D9
  8
0
  6
CONTINUOUS
 62
     7
 10
1.1913702777
 20
6.528942202
 30
0.0
 40
0.0799999999999992
  0
CIRCLE
  5
DA
  8
0
  6
CONTINUOUS
 62
     7
 10
1.1913702777
 20
3.778942202
 30
0.0
 40
0.0799999999999992
  0
LINE
  5
DB
  8
0
  6
CONTINUOUS
 62
     7
 10
1.1254828869
 20
1.825942202
 30
0.0
 11
0.9413702777
 21
1.825942202
 31
0.0
  0
LINE
  5
DC
  8
0
  6
CONTINUOUS
 62
     7
 10
0.9413702777
 20
8.510937093
 30
0.0
 11
0.9413702777
 21
1.825942202
 31
0.0
  0
LINE
  5
DD
  8
0
  6
CONTINUOUS
 62
     7
 10
0.9413702777
 20
8.510937093
 30
0.0
 11
1.6663702777
 21
8.510937093
 31
0.0
  0
CIRCLE
  5
DE
  8
0
  6
CONTINUOUS
 62
     7
 10
13.2973702777
 20
3.778942202
 30
0.0
 40
0.0799999999999965
  0
LINE
  5
DF
  8
0
  6
CONTINUOUS
 62
     7
 10
12.8223702777
 20
8.510937093
 30
0.0
 11
13.5473702777
 21
8.510937093
 31
0.0
  0
LINE
  5
E0
  8
0
  6
CONTINUOUS
 62
     7
 10
13.5473702777
 20
1.825942202
 30
0.0
 11
13.5473702777
 21
8.510937093
 31
0.0
  0
LINE
  5
E1
  8
0
  6
CONTINUOUS
 62
     7
 10
13.5473702777
 20
1.825942202
 30
0.0
 11
13.3632576685
 21
1.825942202
 31
0.0
  0
CIRCLE
  5
E2
  8
0
  6
CONTINUOUS
 62
     7
 10
13.2973702777
 20
6.528942202
 30
0.0
 40
0.0799999999999983
  0
LINE
  5
E3
  8
0
  6
CONTINUOUS
 62
     7
 10
2.7293702777
 20
8.510937093
 30
0.0
 11
11.7593702777
 21
8.510937093
 31
0.0
  0
CIRCLE
  5
E4
  8
0
  6
CONTINUOUS
 62
     7
 10
3.9868702777
 20
8.264991787
 30
0.0
 40
0.0800000000000001
  0
CIRCLE
  5
E5
  8
0
  6
CONTINUOUS
 62
     7
 10
10.5018702777
 20
8.264991787
 30
0.0
 40
0.0800000000000001
  0
LINE
  5
E6
  8
0
  6
CONTINUOUS
 62
     7
 10
12.7833702777
 20
7.7521499079
 30
0.0
 11
12.7833702777
 21
7.7795002364
 31
0.0
  0
LINE
  5
E7
  8
0
  6
CONTINUOUS
 62
     7
 10
1.7053702777
 20
7.7795002364
 30
0.0
 11
1.7053702777
 21
8.4879975745
 31
0.0
  0
LINE
  5
E8
  8
0
  6
CONTINUOUS
 62
     7
 10
1.7053702777
 20
8.4879975745
 30
0.0
 11
2.7053702777
 21
8.4879975745
 31
0.0
  0
LINE
  5
E9
  8
0
  6
CONTINUOUS
 62
     7
 10
2.7053702777
 20
8.4879975745
 30
0.0
 11
2.7053702777
 21
7.7795002364
 31
0.0
  0
LINE
  5
EA
  8
0
  6
CONTINUOUS
 62
     7
 10
12.7833702777
 20
8.4879975745
 30
0.0
 11
11.7833702777
 21
8.4879975745
 31
0.0
  0
LINE
  5
EB
  8
0
  6
CONTINUOUS
 62
     7
 10
12.7833702777
 20
7.7795002364
 30
0.0
 11
12.7833702777
 21
8.4879975745
 31
0.0
  0
LINE
  5
EC
  8
0
  6
CONTINUOUS
 62
     7
 10
11.7833702777
 20
8.4879975745
 30
0.0
 11
11.7833702777
 21
7.7795002364
 31
0.0
  0
LINE
  5
ED
  8
0
  6
CENTERX2
 62
     7
 10
6.9906169849
 20
3.804437093
 30
0.0
 11
13.9898460611
 21
3.804437093
 31
0.0
  0
LINE
  5
EE
  8
0
  6
CENTERX2
 62
     7
 10
1.7368823931
 20
10.535937093
 30
0.0
 11
13.9158187947
 21
10.535937093
 31
0.0
  0
LINE
  5
EF
  8
0
  6
CENTERX2
 62
     7
 10
6.9906169849
 20
6.916937093
 30
0.0
 11
13.9158187947
 21
6.916937093
 31
0.0
  0
LINE
  5
F0
  8
0
  6
CENTERX2
 62
     7
 10
13.9158187947
 20
5.160687093
 30
0.0
 11
6.9906169849
 21
5.160687093
 31
0.0
  0
LINE
  5
F1
  8
0
  6
CENTERX2
 62
     7
 10
13.9158187947
 20
7.035687093
 30
0.0
 11
6.9906169849
 21
7.035687093
 31
0.0
  0
LINE
  5
F2
  8
0
  6
CENTERX2
 62
     7
 10
6.9906169849
 20
8.212421093
 30
0.0
 11
15.0828417755
 21
8.212421093
 31
0.0
  0
LINE
  5
F3
  8
0
  6
CENTERX2
 62
     7
 10
6.9906169849
 20
6.426891093
 30
0.0
 11
14.1150555028
 21
6.426891093
 31
0.0
  0
DIMENSION
  5
F4
  8
0
  6
CONTINUOUS
 62
     7
  2
_D
 10
15.8308348447
 20
2.366937093
 30
0.0
 11
15.8308348447
 21
7.0164874493
 31
0.0
 70
   160
  1
<> 
  3
SLDDIMSTYLE0
 13
13.9158187947
 23
10.535937093
 33
0.0
 14
12.8653702777
 24
2.366937093
 34
0.0
 50
90.0
  0
DIMENSION
  5
105
  8
0
  6
CONTINUOUS
 62
     7
  2
_D_1
 10
15.1221734273
 20
7.035687093
 30
0.0
 11
15.1221734273
 21
6.2075438387
 31
0.0
 70
   160
  1
<>
  3
SLDDIMSTYLE0
 13
12.8653702777
 23
2.366937093
 33
0.0
 14
13.9158187947
 24
7.035687093
 34
0.0
 50
90.0
  0
DIMENSION
  5
114
  8
0
  6
CONTINUOUS
 62
     7
  2
_D_2
 10
14.41351201
 20
5.160687093
 30
0.0
 11
14.41351201
 21
4.025448081
 31
0.0
 70
   160
  1
<>
  3
SLDDIMSTYLE0
 13
12.8653702777
 23
2.366937093
 33
0.0
 14
13.9158187947
 24
5.160687093
 34
0.0
 50
90.0
  0
DIMENSION
  5
123
  8
0
  6
CONTINUOUS
 62
     7
  2
_D_3
 10
14.8859529549
 20
2.366937093
 30
0.0
 11
14.8859529549
 21
5.8373336431
 31
0.0
 70
   160
  1
<>
  3
SLDDIMSTYLE0
 13
13.9158187947
 23
6.916937093
 33
0.0
 14
12.8653702777
 24
2.366937093
 34
0.0
 50
90.0
  0
DIMENSION
  5
132
  8
0
  6
CONTINUOUS
 62
     7
  2
_D_4
 10
14.6497324824
 20
2.366937093
 30
0.0
 11
14.6497324824
 21
5.4854987036
 31
0.0
 70
   160
  1
<>
  3
SLDDIMSTYLE0
 13
14.1150555028
 23
6.426891093
 33
0.0
 14
12.8653702777
 24
2.366937093
 34
0.0
 50
90.0
  0
DIMENSION
  5
141
  8
0
  6
CONTINUOUS
 62
     7
  2
_D_5
 10
15.3583938998
 20
8.212421093
 30
0.0
 11
15.3583938998
 21
6.6312047685
 31
0.0
 70
   160
  1
<>
  3
SLDDIMSTYLE0
 13
12.8653702777
 23
2.366937093
 33
0.0
 14
15.0828417755
 24
8.212421093
 34
0.0
 50
90.0
  0
DIMENSION
  5
150
  8
0
  6
CONTINUOUS
 62
     7
  2
_D_6
 10
14.0540788353
 20
2.366937093
 30
0.0
 11
14.0540788353
 21
3.2070954036
 31
0.0
 70
   160
  1
<>
  3
SLDDIMSTYLE0
 13
13.9898460611
 23
3.804437093
 33
0.0
 14
12.8653702777
 24
2.366937093
 34
0.0
 50
90.0
  0
DIMENSION
  5
15F
  8
0
  6
CONTINUOUS
 62
     7
  2
_D_7
 10
5.3468463649
 20
7.766937093
 30
0.0
 11
5.3468463649
 21
3.4197168176
 31
0.0
 70
   160
  1
<> Cut-Out Size Y
  3
SLDDIMSTYLE1
 13
12.8653702777
 23
2.366937093
 33
0.0
 14
12.8653702777
 24
7.766937093
 34
0.0
 50
90.0
  0
DIMENSION
  5
170
  8
0
  6
CONTINUOUS
 62
     7
  2
_D_8
 10
12.8653702777
 20
4.1873504454
 30
0.0
 11
3.7143570004
 21
4.1873504454
 31
0.0
 70
   160
  1
<> Cut-Out Size X
  3
SLDDIMSTYLE1
 13
1.6233702777
 23
2.366937093
 33
0.0
 14
12.8653702777
 24
2.366937093
 34
0.0
 50
0.0
  0
INSERT
  5
185
  8
0
  6
CONTINUOUS
 62
     7
  2
SW_NOTE_0_4
 10
5.6142563623
 20
1.5370103877
 30
0.0
  0
INSERT
  5
18D
  8
0
  6
CONTINUOUS
 62
     7
  2
SW_NOTE_0_5
 10
4.194907827
 20
7.766937093
 30
0.0
  0
INSERT
  5
19A
  8
0
  6
CONTINUOUS
 62
     7
  2
SW_NOTE_0_6
 10
9.9077483547
 20
5.160687093
 30
0.0
  0
INSERT
  5
1A2
  8
0
  6
CONTINUOUS
 62
     7
  2
SW_NOTE_0_7
 10
9.965343293
 20
7.035687093
 30
0.0
  0
INSERT
  5
1AA
  8
0
  6
CONTINUOUS
 62
     7
  2
SW_NOTE_0_8
 10
10.4150413139
 20
6.426891093
 30
0.0
  0
INSERT
  5
1B2
  8
0
  6
CONTINUOUS
 62
     7
  2
SW_NOTE_0_9
 10
9.904242546
 20
2.366937093
 30
0.0
  0
INSERT
  5
1BA
  8
0
  6
CONTINUOUS
 62
     7
  2
SW_NOTE_0_10
 10
9.9684767652
 20
6.916937093
 30
0.0
  0
INSERT
  5
1C2
  8
0
  6
CONTINUOUS
 62
     7
  2
SW_NOTE_0_11
 10
9.8404210405
 20
8.212421093
 30
0.0
  0
INSERT
  5
1CA
  8
0
  6
CONTINUOUS
 62
     7
  2
SW_NOTE_0_12
 10
7.2443702777
 20
5.0658885381
 30
0.0
  0
INSERT
  5
1D2
  8
0
  6
CONTINUOUS
 62
     7
  2
SW_NOTE_0_13
 10
9.8969130326
 20
10.535937093
 30
0.0
  0
INSERT
  5
1DA
  8
0
  6
CONTINUOUS
 62
     7
  2
SW_NOTE_0_14
 10
1.6233702777
 20
5.3087652374
 30
0.0
  0
INSERT
  5
1E0
  8
0
  6
CONTINUOUS
 62
     7
  2
SW_NOTE_0_15
 10
10.5543814113
 20
0.8201294264
 30
0.0
  0
INSERT
  5
1E8
  8
0
  6
CONTINUOUS
 62
     7
  2
SW_NOTE_0_16
 10
12.8653702777
 20
4.388590914
 30
0.0
  0
INSERT
  5
1F1
  8
0
  6
CONTINUOUS
 62
     7
  2
SW_NOTE_0_17
 10
10.1926485065
 20
3.804437093
 30
0.0
  0
INSERT
  5
1FD
  8
0
  6
CONTINUOUS
 62
     7
  2
SW_CENTERMARKSYMBOL_0
 10
3.9868702777
 20
8.264991787
 30
0.0
  0
INSERT
  5
209
  8
0
  6
CONTINUOUS
 62
     7
  2
SW_CENTERMARKSYMBOL_1
 10
1.1913702777
 20
6.528942202
 30
0.0
  0
INSERT
  5
215
  8
0
  6
CONTINUOUS
 62
     7
  2
SW_CENTERMARKSYMBOL_2
 10
1.1913702777
 20
3.778942202
 30
0.0
  0
INSERT
  5
221
  8
0
  6
CONTINUOUS
 62
     7
  2
SW_CENTERMARKSYMBOL_3
 10
13.2973702777
 20
3.778942202
 30
0.0
  0
INSERT
  5
22D
  8
0
  6
CONTINUOUS
 62
     7
  2
SW_CENTERMARKSYMBOL_4
 10
13.2973702777
 20
6.528942202
 30
0.0
  0
INSERT
  5
239
  8
0
  6
CONTINUOUS
 62
     7
  2
SW_CENTERMARKSYMBOL_5
 10
10.5018702777
 20
8.264991787
 30
0.0
  0
ENDSEC
  0
EOF
